Разлом Сан-Андреас / San Andreas (2015) WEB-DLRip-AVC | Чистый звук

Reply to topic
DL-List and Torrent activity
Size:  1.46 GB   |    Registered:  5 years 1 month   |    Completed:  6 times

Seeder not seen: 4 years 9 months

 
   
 
 
 
Author Message

Dream ®

Gender: Male

Longevity: 3 years 5 months

Posts: 2164



Награды: None

Post 13-Sep-2015 12:37

[Quote]


Информация о фильме
Название: Разлом Сан-Андреас
Оригинальное название: San Andreas
Год выхода: 2015
Жанр: боевик, триллер, драма
Режиссер: Брэд Пейтон
В ролях: Дуэйн Джонсон, Карла Гуджино, Александра Даддарио, Йоан Гриффит, Арчи Панджаби, Пол Джаматти, Хьюго Джонстон-Барт, Арт Паркинсон, Уилл Юн Ли, Кайли Миноуг
О фильме: Рэй - пилот спасательного вертолета, который всю свою жизнь помогал другим людям. За все время работы он насмотрелся на множество жутких вещей и не раз оказывался в очень сложных ситуациях. Несмотря на все преграды он спешил на помощь, даже не предполагая, что самое страшное ждет его впереди.
[imdb]http://www.imdb.com/title/tt2126355[/imdb] [kp]http://www.kinopoisk.ru/film/652692[/kp]
Выпущено: США / Warner Bros., Village Roadshow Pictures, New Line Cinema
Продолжительность: 01:54:24
Озвучивание: Дублированное [Чистый звук]
Файл
Кодек: x264
Качество: WEB-DLRip-AVC
Видео: 1024x428 (2,40:1), 23,976 fps, x264 ~1632 kbps avg, 0.155 bit/pixel
Аудио: 48 kHz, Audio Coding 3, 2 ch, ~192 kbps avg
Семпл

Медиа Инфо

Общее
Уникальный идентификатор : 190183547159235605341738328167164037251 (0x8F1404D2B90C22659DB85CFF1ECE4883)
Полное имя : D:ВидеоРазлом Сан-Андреас. 2015.D.WEB-DLRip(AVC) by Vovan366(ExKinoRay).mkv
Формат : Matroska
Версия формата : Version 4 / Version 2
Размер файла : 1,46 Гбайт
Продолжительность : 1 ч. 54 м.
Общий поток : 1826 Кбит/сек
Название фильма : Разлом Сан-Андреас. 2015.D.WEB-DLRip(AVC) by Vovan366(ExKinoRay)
Дата кодирования : UTC 2015-09-11 13:13:09
Программа кодирования : mkvmerge v8.3.0 ('Over the Horizon') 64bit
Библиотека кодирования : libebml v1.3.1 + libmatroska v1.4.2
DURATION : 01:54:24.704000000
NUMBER_OF_FRAMES : 214522
NUMBER_OF_BYTES : 164752896
_STATISTICS_WRITING_APP : mkvmerge v8.3.0 ('Over the Horizon') 64bit
_STATISTICS_WRITING_DATE_UTC : 2015-09-11 13:13:09
_STATISTICS_TAGS : BPS DURATION NUMBER_OF_FRAMES NUMBER_OF_BYTES
Видео
Идентификатор : 1
Формат : AVC
Формат/Информация : Advanced Video Codec
Профиль формата : High@L4.1
Параметр CABAC формата : Да
Параметр ReFrames формата : 6 кадров
Идентификатор кодека : V_MPEG4/ISO/AVC
Продолжительность : 1 ч. 54 м.
Битрейт : 1632 Кбит/сек
Ширина : 1024 пикселя
Высота : 428 пикселей
Соотношение сторон : 2,40:1
Режим частоты кадров : Постоянный
Частота кадров : 23,976 кадра/сек
Цветовое пространство : YUV
Субдискретизация насыщенности : 4:2:0
Битовая глубина : 8 бит
Тип развёртки : Прогрессивная
Бит/(Пиксели*Кадры) : 0.155
Размер потока : 1,28 Гбайт (87%)
Заголовок : by Vovan366(ExKinoRay)
Библиотека кодирования : x264 core 130 r2273 b3065e6
Настройки программы : cabac=1 / ref=6 / deblock=1:-2:-2 / analyse=0x3:0x133 / me=umh / subme=10 / psy=1 / psy_rd=1.00:0.15 / mixed_ref=1 / me_range=32 / chroma_me=1 / trellis=2 / 8x8dct=1 / cqm=0 / deadzone=21,11 / fast_pskip=0 / chroma_qp_offset=-3 / threads=6 / lookahead_threads=1 / sliced_threads=0 / nr=0 / decimate=0 / interlaced=0 / bluray_compat=0 / constrained_intra=0 / bframes=6 / b_pyramid=2 / b_adapt=2 / b_bias=0 / direct=3 / weightb=1 / open_gop=0 / weightp=2 / keyint=250 / keyint_min=23 / scenecut=40 / intra_refresh=0 / rc=2pass / mbtree=0 / bitrate=1632 / ratetol=1.0 / qcomp=0.60 / qpmin=0 / qpmax=69 / qpstep=4 / cplxblur=20.0 / qblur=0.5 / ip_ratio=1.40 / pb_ratio=1.30 / aq=1:1.00
Default : Да
Forced : Нет
Аудио
Идентификатор : 2
Формат : AC-3
Формат/Информация : Audio Coding 3
Расширение режима : CM (complete main)
Параметр Endianness формата : Big
Идентификатор кодека : A_AC3
Продолжительность : 1 ч. 54 м.
Вид битрейта : Постоянный
Битрейт : 192 Кбит/сек
Каналы : 2 канала
Расположение каналов : Front: L R
Частота : 48,0 КГц
Битовая глубина : 16 бит
Метод сжатия : С потерями
Размер потока : 157 Мбайт (11%)
Заголовок : Line
Язык : Russian
Default : Да
Forced : Нет

Скриншоты



If your ratio falls below 0.3, you will not be able to download Torrents! More about the rating.

[dis-tracker.ru].t9994.torrent 
Torrent: Registered [ 2015-09-13 12:37 ] · 24751153F7EC98D2CB80E93A00028F3BBE9E3A66

Download .torrent

Download

15 KB

Status: T temporary
Completed: 6 times
Size: 1.46 GB
terms.php
Похожие темы
[Profile] [PM]
Display posts:    
Reply to topic

Current time is: 25-Oct 10:37

All times are UTC ± 0



You cannot post new topics in this forum
You cannot reply to topics in this forum
You cannot edit your posts in this forum
You cannot delete your posts in this forum
You cannot vote in polls in this forum
You cannot attach files in this forum
You can download files in this forum