Овечка Долли была злая и рано умерла (Алексей Пиманов) [2015, фантастика, комедия, приключения, WEB-DLRip-AVC]

Reply to topic
DL-List and Torrent activity
Size:  1.45 GB   |    Registered:  5 years 1 month   |    Completed:  11 times

Seeder not seen: 4 years 9 months

 
   
 
 
 
Author Message

adeei ®

Gender: Male

Longevity: 5 years 2 months

Posts: 150



Награды: None

Post 12-Sep-2015 19:38

[Quote]

-- Овечка Долли была злая и рано умерла Год выхода: 2015
Жанр: фантастика, комедия, приключения
Страна: Россия
Студия: Пиманов Фильм
Продолжительность: 01:56:37
Перевод: Не требуется-Режиссер: Алексей Пиманов-В ролях:- - Данила Шевченко, Юлия Савичева, Виктор Сухоруков, Роман Полянский, Виктория Маслова, Борис Щербаков, Анна Шерлинг, Юлия Пожидаева, Антон Феоктистов, Ирина Ильинская, Николай Клименко-Описание: Главный герой — современный молодой человек Никита, студент МИФИ, в результате научного эксперимента попадает в прошлое, где ему предстоит встретить не только своих молодых родителей, но найти новых друзей и обрести настоящую любовь в лице студентки Маши. Эта встреча заставляет его по-другому посмотреть на свою жизнь. Однако Никита вдруг понимает, что начинает стремительно стареть и спастись он может только если вернется обратно — в свое время. Но сделать это оказалось не так просто….-[kp]http://www.kinopoisk.ru/film/705402/[/kp] [imdb]http://www.imdb.com/title/tt4856190/[/imdb] -Формат: MKV
Качество: WEB-DLRip-AVC
Видео: MPEG-4 AVC, ~1580 Кбит/с, 1024х432
Аудио: AC3, 2 ch, 192 Кбит/с
Язык: Русский-

M/I

General
Unique ID : 16673752838678961494410877279721639449 (0xC8B3F7C1FC03F55E22548490FAE4E19)
Complete name : D:Овечка Долли была злая и рано умерла.(2015).O.WEB-DLRIP_AVC.[-=DoMiNo=-].mkv
Format : Matroska
Format version : Version 4 / Version 2
File size : 1.45 GiB
Duration : 1h 56mn
Overall bit rate : 1 783 Kbps
Writing application : XviD4PSP 7.0.170
Writing library : Lavf56.25.101
ENCODING_INFO : MATROSKA,WEBM > MKV / H264 > X264 VBR-2P 1589kbps Custom / AC3 > COPY
Video
ID : 1
Format : AVC
Format/Info : Advanced Video Codec
Format profile : High@L4.1
Format settings, CABAC : Yes
Format settings, ReFrames : 12 frames
Codec ID : V_MPEG4/ISO/AVC
Duration : 1h 56mn
Bit rate : 1 589 Kbps
Width : 1 024 pixels
Height : 432 pixels
Display aspect ratio : 2.40:1
Frame rate mode : Constant
Frame rate : 25.000 fps
Color space : YUV
Chroma subsampling : 4:2:0
Bit depth : 8 bits
Scan type : Progressive
Bits/(Pixel*Frame) : 0.144
Stream size : 1.27 GiB (87%)
Writing library : x264 core 148 r2597M e86f3a1
Encoding settings : cabac=1 / ref=12 / deblock=1:-3:-3 / analyse=0x3:0x133 / me=umh / subme=10 / psy=1 / psy_rd=1.00:0.20 / mixed_ref=1 / me_range=32 / chroma_me=1 / trellis=2 / 8x8dct=1 / cqm=0 / deadzone=21,11 / fast_pskip=0 / chroma_qp_offset=-3 / threads=5 / lookahead_threads=1 / sliced_threads=0 / nr=0 / decimate=1 / interlaced=0 / bluray_compat=0 / constrained_intra=0 / bframes=11 / b_pyramid=2 / b_adapt=2 / b_bias=0 / direct=1 / weightb=1 / open_gop=0 / weightp=2 / keyint=250 / keyint_min=25 / scenecut=40 / intra_refresh=0 / rc=2pass / mbtree=0 / bitrate=1589 / ratetol=1.0 / qcomp=0.60 / qpmin=0 / qpmax=69 / qpstep=4 / cplxblur=20.0 / qblur=0.5 / ip_ratio=1.40 / pb_ratio=1.30 / aq=1:1.00
Language : Russian
Default : Yes
Forced : No
Color range : Limited
Color primaries : BT.709
Transfer characteristics : BT.709
Matrix coefficients : BT.709
Audio
ID : 2
Format : AC-3
Format/Info : Audio Coding 3
Mode extension : CM (complete main)
Format settings, Endianness : Big
Codec ID : A_AC3
Duration : 1h 56mn
Bit rate mode : Constant
Bit rate : 192 Kbps
Channel(s) : 2 channels
Channel positions : Front: L R
Sampling rate : 48.0 KHz
Bit depth : 32 bits
Compression mode : Lossy
Stream size : 160 MiB (11%)
Language : Russian
Default : Yes
Forced : No
Menu
00:00:00.000 : :Глава 1
00:05:36.000 : :Глава 2
00:10:46.000 : :Глава 3
00:16:09.000 : :Глава 4
00:21:20.000 : :Глава 5
00:27:03.000 : :Глава 6
00:32:21.000 : :Глава 7
00:37:58.000 : :Глава 8
00:43:23.000 : :Глава 9
00:48:16.000 : :Глава 10
00:54:01.000 : :Глава 11
00:59:39.000 : :Глава 12
01:05:34.000 : :Глава 13
01:11:49.000 : :Глава 14
01:17:17.000 : :Глава 15
01:21:49.000 : :Глава 16
01:26:52.000 : :Глава 17
01:32:07.000 : :Глава 18
01:38:04.000 : :Глава 19
01:43:57.000 : :Глава 20
01:49:41.000 : :Глава 21
-

With ratio 0.05 you can not download torrents

Похожие темы
[Profile] [PM]

IVAN@190282

Gender: Male

Longevity: 5 years 2 months

Posts: 408

Location: Иваново



Награды: 3 (Подробнее)

Активный релизер (200 релизов) (Количество: 1) Активный релизер (250 релизов) (Количество: 1) Активный релизер (300 релизов) (Количество: 1)

Post 13-Sep-2015 19:18 (after 23 hours)

[Quote]

А что с разделом,почему в зар.кино,да еще и в HD?
[Profile] [PM]

adeei ®

Gender: Male

Longevity: 5 years 2 months

Posts: 150



Награды: None

Post 13-Sep-2015 20:40 (after 1 hour 21 minute)

[Quote]

11164А что с разделом,почему в зар.кино,да еще и в HD?
Приношу свои извинения!!!
впредь буду более внимателен
если не трудно поправьте
с/ув виталий
[Profile] [PM]

Post 13-Sep-2015 21:19 (after 39 minutes)

Топик был перенесен из форума Фильмы 2015 (HD) в форум Фильмы 2015
Dima.344
 
Display posts:    
Reply to topic

Current time is: 28-Oct 19:40

All times are UTC ± 0



You cannot post new topics in this forum
You cannot reply to topics in this forum
You cannot edit your posts in this forum
You cannot delete your posts in this forum
You cannot vote in polls in this forum
You cannot attach files in this forum
You can download files in this forum