Citizenfour: Правда Сноудена / Citizenfour (2014) HDTVRip-AVC | D -

Reply to topic
DL-List and Torrent activity
Size:  1.33 GB   |    Registered:  5 years 1 month   |    Completed:  7 times

Seeder not seen: 4 years 9 months

 
   
 
 
 
Author Message

Dream ®

Gender: Male

Longevity: 3 years 4 months

Posts: 2164



Награды: None

Post 11-Sep-2015 18:06

[Quote]

- Citizenfour: Правда Сноудена / CitizenfourГод выпуска: 2014
Страна: США | Германия | Великобритания
Студия: Praxis Films | Participant Media
Жанр: Документальный
Продолжительность: 1:52:36
Перевод: Профессиональный (дублированный) | медиахолдинг "ВГТРК" по заказу "24_DOC"
Режиссер: Лора Пойтрас / Laura Poitras-Описание: В январе 2013 года Лора Пойтрас стала получать анонимные зашифрованные электронные письма от человека по имени «CITIZENFOUR», который утверждал, что у него есть доказательства существования нелегальных программ скрытого наблюдения, которое ведет АНБ в сотрудничестве с другими спецслужбами по всему миру. Пять месяцев спустя она и журналисты Гленн Гринвальд и Ивен МакАскилл прилетели в Гонконг для первой из многих встреч с этим человеком. Им оказался Эдвард Сноуден.
[imdb]http://www.imdb.com/title/tt4044364[/imdb] [kp]http://www.kinopoisk.ru/film/843103[/kp]-Примечание: Видеоряд локализован на русский язык-Автор рипа: lrn
Автор записи: kuzmichm2196
Сэмпл: sendfile-Тип релиза: HDTVRip-AVC
Контейнер: MKV
Видео: 1024x576 (16:9), 25,000 fps, H264, ~1500 kbps avg, ~0.102 bit/pixel
Аудио: 48 kHz, AC3 Dolby Digital, 2/0 (L,R) ch, ~192.00 kbps avg-

MediaInfo

General
Unique ID : 243949566359113459987542510467264876059 (0xB786FA3BF0F0F1F0B943214AB8AD0E1B)
Complete name : E:uTorrent.TempDoneCitizenfour.2014.HDTVRip-AVC.x264-RUS-lrn.mkv
Format : Matroska
Format version : Version 4 / Version 2
File size : 1.33 GiB
Duration : 1h 52mn
Overall bit rate : 1 689 Kbps
Movie name : Citizenfour.2014.HDTVRip-AVC.x264-RUS-lrn
Encoded date : UTC 2010-02-22 21:41:31
Writing application : mkvmerge v5.9.0 ('On The Loose') built on Dec 9 2012 15:37:01
Writing library : libebml v1.3.0 + libmatroska v1.4.0
Video
ID : 1
Format : AVC
Format/Info : Advanced Video Codec
Format profile : High@L4.1
Format settings, CABAC : Yes
Format settings, ReFrames : 8 frames
Codec ID : V_MPEG4/ISO/AVC
Duration : 1h 52mn
Bit rate : 1 500 Kbps
Width : 1 024 pixels
Height : 576 pixels
Display aspect ratio : 16:9
Frame rate mode : Constant
Frame rate : 25.000 fps
Color space : YUV
Chroma subsampling : 4:2:0
Bit depth : 8 bits
Scan type : Progressive
Bits/(Pixel*Frame) : 0.102
Stream size : 1.15 GiB (87%)
Writing library : x264 core 142 r2479 dd79a61
Encoding settings : cabac=1 / ref=8 / deblock=1:-3:-3 / analyse=0x3:0x133 / me=umh / subme=9 / psy=1 / psy_rd=1.00:0.00 / mixed_ref=1 / me_range=32 / chroma_me=1 / trellis=2 / 8x8dct=1 / cqm=0 / deadzone=21,11 / fast_pskip=1 / chroma_qp_offset=-2 / threads=12 / lookahead_threads=2 / sliced_threads=0 / nr=0 / decimate=1 / interlaced=0 / bluray_compat=0 / constrained_intra=0 / bframes=8 / b_pyramid=2 / b_adapt=2 / b_bias=0 / direct=3 / weightb=1 / open_gop=0 / weightp=2 / keyint=250 / keyint_min=25 / scenecut=40 / intra_refresh=0 / rc_lookahead=50 / rc=2pass / mbtree=1 / bitrate=1500 / ratetol=1.0 / qcomp=0.60 / qpmin=0 / qpmax=69 / qpstep=4 / cplxblur=20.0 / qblur=0.5 / vbv_maxrate=62500 / vbv_bufsize=78125 / nal_hrd=none / filler=0 / ip_ratio=1.40 / aq=1:1.00
Default : Yes
Forced : No
Color range : Limited
Color primaries : BT.709
Transfer characteristics : BT.709
Matrix coefficients : BT.709
Audio
ID : 2
Format : AC-3
Format/Info : Audio Coding 3
Mode extension : CM (complete main)
Format settings, Endianness : Big
Codec ID : A_AC3
Duration : 1h 52mn
Bit rate mode : Constant
Bit rate : 192 Kbps
Channel(s) : 2 channels
Channel positions : Front: L R
Sampling rate : 48.0 KHz
Compression mode : Lossy
Delay relative to video : -80ms
Stream size : 155 MiB (11%)
Language : Russian
Default : Yes
Forced : No

x264 log

raw [info]: 1024x576p 1:1 @ 25/1 fps (cfr)
x264 [info]: using SAR=1/1
x264 [info]: using cpu capabilities: MMX2 SSE2Fast SSSE3 SSE4.2 AVX
x264 [info]: profile High, level 4.1
x264 [info]: frame I:964 Avg QP:12.36 size: 72288
x264 [info]: frame P:36525 Avg QP:15.67 size: 19409
x264 [info]: frame B:131424 Avg QP:18.40 size: 3685
x264 [info]: consecutive B-frames: 1.5% 2.3% 5.8% 30.6% 19.6% 22.9% 7.2% 6.0% 4.1%
x264 [info]: mb I I16..4: 14.6% 65.6% 19.8%
x264 [info]: mb P I16..4: 1.4% 5.7% 0.7% P16..4: 40.8% 19.1% 12.9% 0.6% 0.2% skip:18.6%
x264 [info]: mb B I16..4: 0.1% 0.3% 0.0% B16..8: 33.5% 5.5% 1.1% direct: 3.2% skip:56.2% L0:42.6% L1:49.1% BI: 8.3%
x264 [info]: 8x8 transform intra:70.8% inter:55.2%
x264 [info]: direct mvs spatial:98.5% temporal:1.5%
x264 [info]: coded y,uvDC,uvAC intra: 68.5% 78.0% 53.4% inter: 13.1% 16.6% 1.8%
x264 [info]: i16 v,h,dc,p: 41% 14% 6% 39%
x264 [info]: i8 v,h,dc,ddl,ddr,vr,hd,vl,hu: 16% 11% 12% 7% 11% 12% 11% 10% 11%
x264 [info]: i4 v,h,dc,ddl,ddr,vr,hd,vl,hu: 16% 12% 7% 8% 13% 12% 12% 9% 11%
x264 [info]: i8c dc,h,v,p: 43% 24% 19% 14%
x264 [info]: Weighted P-Frames: Y:1.0% UV:0.1%
x264 [info]: ref P L0: 50.4% 8.8% 16.7% 6.3% 5.8% 4.5% 4.2% 3.0% 0.3% 0.0%
x264 [info]: ref B L0: 78.7% 11.2% 4.4% 2.2% 1.9% 1.1% 0.6%
x264 [info]: ref B L1: 93.1% 6.9%
x264 [info]: kb/s:1495.35
encoded 168917 frames, 21.31 fps, 1495.35 kb/s

Скриншоты

If your ratio falls below 0.3, you will not be able to download Torrents! More about the rating.

[dis-tracker.ru].t9967.torrent 
Torrent: Registered [ 2015-09-11 18:06 ] · 6C147EB1F4BFEDDA3AE4D6B1A20EC6A93B1C505D

Download .torrent

Download

14 KB

Status: checked
Completed: 7 times
Size: 1.33 GB
terms.php
Похожие темы
[Profile] [PM]
Display posts:    
Reply to topic

Current time is: 21-Oct 05:11

All times are UTC ± 0



You cannot post new topics in this forum
You cannot reply to topics in this forum
You cannot edit your posts in this forum
You cannot delete your posts in this forum
You cannot vote in polls in this forum
You cannot attach files in this forum
You can download files in this forum