Раз на раз не приходится (1987) SATRip-AVC

Reply to topic
DL-List and Torrent activity
Size:  1.31 GB   |    Registered:  5 years 1 month   |    Completed:  1 time

Seeder not seen: 5 years

 
   
 
 
 
Author Message

Dream ®

Gender: Male

Longevity: 3 years 4 months

Posts: 2164



Награды: None

Post 11-Sep-2015 05:07

[Quote]


Информация о фильме
Название: Раз на раз не приходится
Год выхода: 1987
Жанр: Комедия
Режиссер: Ара Габриелян
В ролях: Армен Джигарханян, Леонид Куравлев, Борислав Брондуков, Любовь Полищук, Виктор Кремлев, Владимир Бурлаков, Виталий Варганов, Анатолий Веденкин, Мария Виноградова, Борис Иванов, Капитолина Ильенко, Нина Крачковская, Александр Кудинов, Татьяна Митрушина, Лада Фетисова, Владимир Ферапонтов
О фильме: Бригада горе-строителей отправлена на штрафные работы: рушить старые постройки. В одной из развалин герои фильма обнаруживают припрятанные кем-то золотые слитки. Перед ними дилемма: получить за находку четверть стоимости клада — или сбыть золото «налево»???
Страна: СССР
Продолжительность: 01:12:33
Перевод: не требуется
Файл
Кодек: MKV
Качество: SATRip-AVC
Видео: MPEG-4 AVC, 2400 Кбит/с, 692x384@738x384
Звук: AC3, 1 ch, 192 Кбит/с

Скриншоты

Медиа-Инфо

Общее
Уникальный идентификатор : 205457604201274085263996662871168223487 (0x9A91B1FA27F769008A4E805F29A988FF)
Полное имя : D:Раз на раз не приходится_1987-SATRip-AVC.mkv
Формат : Matroska
Версия формата : Version 2
Размер файла : 1,31 Гбайт
Продолжительность : 1 ч. 12 м.
Общий поток : 2594 Кбит/сек
Дата кодирования : UTC 2015-09-10 19:49:10
Программа кодирования : mkvmerge v5.8.0 ('No Sleep / Pillow') built on Sep 2 2012 15:37:04
Библиотека кодирования : libebml v1.2.3 + libmatroska v1.3.0
Видео
Идентификатор : 1
Формат : AVC
Формат/Информация : Advanced Video Codec
Профиль формата : High@L4.1
Параметр CABAC формата : Да
Параметр ReFrames формата : 15 кадров
Идентификатор кодека : V_MPEG4/ISO/AVC
Продолжительность : 1 ч. 12 м.
Битрейт : 2400 Кбит/сек
Ширина : 692 пикселя
Высота : 384 пикселя
Соотношение сторон : 1,922
Режим частоты кадров : Постоянный
Частота кадров : 25,000 кадров/сек
Цветовое пространство : YUV
Субдискретизация насыщенности : 4:2:0
Битовая глубина : 8 бит
Тип развёртки : Прогрессивная
Бит/(Пиксели*Кадры) : 0.361
Размер потока : 1,19 Гбайт (91%)
Библиотека кодирования : x264 core 146 r2538 121396c
Настройки программы : cabac=1 / ref=15 / deblock=1:-2:-2 / analyse=0x3:0x133 / me=umh / subme=10 / psy=1 / psy_rd=1.03:0.00 / mixed_ref=1 / me_range=32 / chroma_me=1 / trellis=2 / 8x8dct=1 / cqm=0 / deadzone=21,11 / fast_pskip=0 / chroma_qp_offset=-2 / threads=12 / lookahead_threads=2 / sliced_threads=0 / nr=0 / decimate=0 / interlaced=0 / bluray_compat=0 / constrained_intra=0 / bframes=8 / b_pyramid=2 / b_adapt=2 / b_bias=0 / direct=3 / weightb=1 / open_gop=0 / weightp=2 / keyint=250 / keyint_min=25 / scenecut=40 / intra_refresh=0 / rc=2pass / mbtree=0 / bitrate=2400 / ratetol=1.0 / qcomp=0.65 / qpmin=0 / qpmax=45 / qpstep=4 / cplxblur=20.0 / qblur=0.5 / ip_ratio=1.40 / pb_ratio=1.30 / aq=1:1.00
Язык : English
Default : Да
Forced : Нет
Основные цвета : BT.601 PAL
Характеристики трансфера : BT.470 System B, BT.470 System G
Коэффициенты матрицы : BT.601
Аудио
Идентификатор : 2
Формат : AC-3
Формат/Информация : Audio Coding 3
Расширение режима : CM (complete main)
Параметр Endianness формата : Big
Идентификатор кодека : A_AC3
Продолжительность : 1 ч. 12 м.
Вид битрейта : Постоянный
Битрейт : 192 Кбит/сек
Каналы : 1 канал
Расположение каналов : Front: C
Частота : 48,0 КГц
Битовая глубина : 16 бит
Метод сжатия : С потерями
Размер потока : 99,6 Мбайт (7%)
Язык : Russian
Default : Да
Forced : Нет

If your ratio falls below 0.3, you will not be able to download Torrents! More about the rating.

[dis-tracker.ru].t9952.torrent 
Torrent: Registered [ 2015-09-11 05:07 ] · 11BB4F4ED6815A1D717DEA4368CEC846BD223FAB

Download .torrent

Download

14 KB

Status: checked
Completed: 1 times
Size: 1.31 GB
terms.php
Похожие темы
[Profile] [PM]
Display posts:    
Reply to topic

Current time is: 20-Oct 05:21

All times are UTC ± 0



You cannot post new topics in this forum
You cannot reply to topics in this forum
You cannot edit your posts in this forum
You cannot delete your posts in this forum
You cannot vote in polls in this forum
You cannot attach files in this forum
You can download files in this forum