Пленница / The Captive (2014) BDRip 720p | P =

Reply to topic
 
Author Message

Dream ®

Gender: Male

Longevity: 3 years 5 months

Posts: 2164



Награды: None

Post 10-Sep-2015 14:45

[Quote]

Информация о фильме
Название: Пленница
Оригинальное название: The Captive
Год выхода: 2014
Жанр: триллер, драма
Режиссер: Атом Эгоян
В ролях: Райан Рейнольдс, Скотт Спидман, Розарио Доусон, Мирей Инос, Кевин Дюран, Алексия Фаст, Пейтон Кеннеди, Брюс Гринвуд, Брендан Галь, Аарон Пул
О фильме: Фильм расскажет историю отца, который спустя восемь лет после похищения дочери начинает находить зацепки, намекающие на то, что семнадцатилетняя девушка может быть жива.
[imdb]http://www.imdb.com/title/tt2326612[/imdb] [kp]http://www.kinopoisk.ru/film/696148[/kp]

Выпущено: Канада / Ego Film Arts, The Film Farm
Продолжительность: 01:51:49
Озвучивание: Профессиональное (многоголосое) [Официальный звук]
Файл
Формат: MKV
Качество: BDRip 720p
Видео: 6565 kb/s, 1280x536
Аудио: Russian: AC3, 192 kb/s (2 ch) / English: DTS, 1510 kb/s (6 ch)
Субтитры: English
Размер: 6.61 GB
Дополнительно: Сохранены оригинальные чаптеры
Скачать: Сэмпл

Media Info

General
Unique ID : 221565198643099982010546099834545817114 (0xA6AFE7B2AC50B307991D74DFF8A8C61A)
Complete name : /home9/teamkz/downloads/torrents/Plennica.2014.P.BDRip.720p.mkv
Format : Matroska
Format version : Version 4 / Version 2
File size : 6.61 GiB
Duration : 1h 51mn
Overall bit rate : 8 460 Kbps
Encoded date : UTC 2015-09-09 16:59:23
Writing application : mkvmerge v8.2.0 ('World of Adventure') 64bit
Writing library : libebml v1.3.1 + libmatroska v1.4.2
DURATION : 01:51:45.984000000
NUMBER_OF_FRAMES : 209562
NUMBER_OF_BYTES : 160943616
_STATISTICS_WRITING_APP : mkvmerge v8.2.0 ('World of Adventure') 64bit
_STATISTICS_WRITING_DATE_UTC : 2015-09-09 16:59:23
_STATISTICS_TAGS : BPS DURATION NUMBER_OF_FRAMES NUMBER_OF_BYTES
Video
ID : 1
Format : AVC
Format/Info : Advanced Video Codec
Format profile : High@L4.1
Format settings, CABAC : Yes
Format settings, ReFrames : 12 frames
Codec ID : V_MPEG4/ISO/AVC
Duration : 1h 51mn
Bit rate : 6 591 Kbps
Width : 1 280 pixels
Height : 536 pixels
Display aspect ratio : 2.40:1
Frame rate mode : Constant
Frame rate : 24.000 fps
Color space : YUV
Chroma subsampling : 4:2:0
Bit depth : 8 bits
Scan type : Progressive
Bits/(Pixel*Frame) : 0.400
Stream size : 5.15 GiB (78%)
Writing library : x264 core 142 r2431kMod ac76440
Encoding settings : cabac=1 / ref=12 / deblock=1:-3:-3 / analyse=0x3:0x133 / me=umh / subme=11 / psy=1 / fade_compensate=0.00 / psy_rd=1.05:0.00 / mixed_ref=1 / me_range=24 / chroma_me=1 / trellis=2 / 8x8dct=1 / cqm=0 / deadzone=21,11 / fast_pskip=0 / chroma_qp_offset=-2 / threads=18 / lookahead_threads=3 / sliced_threads=0 / nr=0 / decimate=0 / interlaced=0 / bluray_compat=0 / constrained_intra=0 / fgo=0 / bframes=9 / b_pyramid=2 / b_adapt=2 / b_bias=0 / direct=3 / weightb=1 / open_gop=0 / weightp=2 / keyint=250 / keyint_min=24 / scenecut=40 / intra_refresh=0 / rc=crf / mbtree=0 / crf=15.3000 / qcomp=0.65 / qpmin=0 / qpmax=69 / qpstep=4 / ip_ratio=1.30 / pb_ratio=1.20 / aq=1:0.85
Language : English
Default : Yes
Forced : No
DURATION : 01:51:49.375000000
NUMBER_OF_FRAMES : 161025
NUMBER_OF_BYTES : 5666627521
_STATISTICS_WRITING_APP : mkvmerge v8.2.0 ('World of Adventure') 64bit
_STATISTICS_WRITING_DATE_UTC : 2015-09-09 16:59:23
_STATISTICS_TAGS : BPS DURATION NUMBER_OF_FRAMES NUMBER_OF_BYTES
Audio #1
ID : 2
Format : AC-3
Format/Info : Audio Coding 3
Mode extension : CM (complete main)
Format settings, Endianness : Big
Codec ID : A_AC3
Duration : 1h 51mn
Bit rate mode : Constant
Bit rate : 192 Kbps
Channel(s) : 2 channels
Channel positions : Front: L R
Sampling rate : 48.0 KHz
Bit depth : 16 bits
Compression mode : Lossy
Stream size : 154 MiB (2%)
Language : Russian
Default : Yes
Forced : Yes
Audio #2
ID : 3
Format : DTS
Format/Info : Digital Theater Systems
Mode : 16
Format settings, Endianness : Big
Codec ID : A_DTS
Duration : 1h 51mn
Bit rate mode : Constant
Bit rate : 1 509 Kbps
Channel(s) : 6 channels
Channel positions : Front: L C R, Side: L R, LFE
Sampling rate : 48.0 KHz
Bit depth : 16 bits
Compression mode : Lossy
Stream size : 1.18 GiB (18%)
Language : English
Default : No
Forced : No
Text
ID : 4
Format : UTF-8
Codec ID : S_TEXT/UTF8
Codec ID/Info : UTF-8 Plain Text
Language : English
Default : No
Forced : No
Menu
00:00:00.000 : en:Chapter 01
00:10:16.208 : en:Chapter 02
00:18:59.583 : en:Chapter 03
00:26:13.083 : en:Chapter 04
00:37:21.583 : en:Chapter 05
00:46:17.125 : en:Chapter 06
00:55:41.041 : en:Chapter 07
01:05:08.500 : en:Chapter 08
01:13:43.750 : en:Chapter 09
01:25:39.583 : en:Chapter 10
01:32:16.500 : en:Chapter 11
01:41:48.958 : en:Chapter 12

Скриншоты

[Profile] [PM]
Display posts:    
Reply to topic

Current time is: 30-Oct 12:49

All times are UTC ± 0



You cannot post new topics in this forum
You cannot reply to topics in this forum
You cannot edit your posts in this forum
You cannot delete your posts in this forum
You cannot vote in polls in this forum
You cannot attach files in this forum
You cannot download files in this forum