Мир Юрского периода / Jurassic World (2015) WEB-DL 720p | iTunes

Reply to topic
DL-List and Torrent activity
Size:  3.85 GB   |    Registered:  5 years 2 months   |    Completed:  7 times

Seeder not seen: 3 years 5 months

 
   
 
 
 
Author Message

Dream ®

Gender: Male

Longevity: 3 years 6 months

Posts: 2164



Награды: None

Post 10-Sep-2015 03:33

[Quote]

Информация о фильме
Название: Мир Юрского периода
Оригинальное название: Jurassic World
Год выхода: 2015
Жанр: фантастика, боевик, триллер, приключения
Режиссер: Колин Треворроу
В ролях: Крис Пратт, Брайс Даллас Ховард, Винсент Д’Онофрио, Ник Дж. Робинсон, Тай Симпкинс, Омар Си, Ирфан Кхан, Брайан Ти, Джейк Джонсон, Б.Д. Вонг
О фильме: Тысячи людей спешат увидеть Мир Юрского периода, но безопасное на первый взгляд развлечение может обернуться угрозой для всего человечества…
[imdb]http://www.imdb.com/title/tt0369610[/imdb] [kp]http://www.kinopoisk.ru/film/594554[/kp]
Выпущено: США / Universal Pictures, Legendary Pictures, China Film Co., Amblin Entertainment
Продолжительность: 02:04:21
Озвучивание: Дублированное [iTunes]
Файл
Формат: MKV
Качество: WEB-DL 720p
Видео: 3960 kb/s, 1280x638
Аудио: AC3, 384 kb/s (6 ch)

MI

Format : Matroska
Format version : Version 4 / Version 2
File size : 3.85 GiB
Duration : 2h 4mn
Overall bit rate : 4 432 Kbps
Encoded date : UTC 2015-09-09 18:10:03
Writing application : mkvmerge v6.9.1 ('Blue Panther') 64bit built on Apr 18 2014 18:23:38
Writing library : libebml v1.3.0 + libmatroska v1.4.1
Video
ID : 1
Format : AVC
Format/Info : Advanced Video Codec
Format profile : High@L3.1
Format settings, CABAC : No
Format settings, ReFrames : 2 frames
Codec ID : V_MPEG4/ISO/AVC
Duration : 2h 4mn
Bit rate : 3 960 Kbps
Width : 1 280 pixels
Height : 638 pixels
Display aspect ratio : 2.006
Frame rate mode : Constant
Frame rate : 23.976 fps
Color space : YUV
Chroma subsampling : 4:2:0
Bit depth : 8 bits
Scan type : Progressive
Bits/(Pixel*Frame) : 0.202
Stream size : 3.44 GiB (89%)
Language : English
Default : Yes
Forced : No
Color range : Limited
Color primaries : BT.709
Transfer characteristics : BT.709
Matrix coefficients : BT.709
Audio
ID : 2
Format : AC-3
Format/Info : Audio Coding 3
Mode extension : CM (complete main)
Format settings, Endianness : Big
Codec ID : A_AC3
Duration : 2h 4mn
Bit rate mode : Constant
Bit rate : 384 Kbps
Channel(s) : 6 channels
Channel positions : Front: L C R, Side: L R, LFE
Sampling rate : 48.0 KHz
Bit depth : 16 bits
Compression mode : Lossy
Stream size : 342 MiB (9%)
Language : Russian
Default : Yes
Forced : No
Menu
00:00:00.000 : en:глава 1
00:06:59.000 : en:глава 2
00:11:01.000 : en:глава 3
00:18:28.000 : en:глава 4
00:25:34.000 : en:глава 5
00:31:20.000 : en:глава 6
00:39:23.000 : en:глава 7
00:44:07.000 : en:глава 8
00:48:57.000 : en:глава 9
00:55:51.000 : en:глава 10
01:01:21.000 : en:глава 11
01:09:50.000 : en:глава 12
01:15:25.000 : en:глава 13
01:23:51.000 : en:глава 14
01:30:14.000 : en:глава 15
01:36:45.000 : en:глава 16
01:41:15.000 : en:глава 17
01:47:36.000 : en:глава 18
01:53:06.000 : en:глава 19
01:55:36.000 : en:глава 20

With ratio 0.05 you can not download torrents

Похожие темы
[Profile] [PM]
Display posts:    
Reply to topic

Current time is: 26-Nov 19:08

All times are UTC ± 0



You cannot post new topics in this forum
You cannot reply to topics in this forum
You cannot edit your posts in this forum
You cannot delete your posts in this forum
You cannot vote in polls in this forum
You cannot attach files in this forum
You can download files in this forum