Близнецы / Twins (1988) HDTVRip

Reply to topic
DL-List and Torrent activity
Size:  1.46 GB   |    Registered:  5 years 1 month   |    Completed:  2 times

Seeder not seen: 4 years 10 months

 
   
 
 
 
Author Message

Dream ®

Gender: Male

Longevity: 3 years 5 months

Posts: 2164



Награды: None

Post 08-Sep-2015 17:30

[Quote]

Близнецы
Страна: США
Производство: Universal Pictures
Жанр: комедия, криминал
Год выпуска: 1988
Продолжительность: 01:46:41
Перевод: Профессиональный (многоголосый, закадровый)
Оригинальная аудиодорожка: английский
Cубтитры: нет
Режиссер: Айвен Райтман / Ivan Reitman
В ролях:
Арнольд Шварценеггер (Julius Benedict), Дэнни ДеВито (Vincent Benedict), Келли Престон (Marnie Mason), Хлоя Уэбб (Linda Mason), Бонни Бартлетт (Mary Ann Benedict), Трей Уилсон (Beetroot McKinley), Маршалл Белл (Webster), Дэвид Карузо (Al Greco), Хью О’Брайан (Granger), Нехемия Персофф (Mitchell Traven), Мори Чайкин (Burt Klane), Тони Джей (Werner)...
Описание:
Неожиданный оборот принимает генетический эксперимент, во время которого новорожденных близнецов, которые, кстати, совершенно непохожи друг на друга, разлучают на долгие годы. Но несчастные братья наконец встречаются. Джулиус, образованный, но совершенно не знающий жизни гигант с добрым сердцем и Винсент, коротышка с неистребимой жаждой денег и женщин. В компании подружек и преследующего их наемного убийцы братья отправляются в путешествие по стране на поиски своей матери — но в конце концов находят гораздо большее. Только мать может сказать им правду...- [imdb]http://www.imdb.com/title/tt0096320[/imdb] -Исходник: HDTVRip 1080i
Тип релиза: HDTVRip
Контейнер: AVI
Видео: 720x400 (16:9), 23,976 fps, XviD ~ 1562 kbps avg, 0.226 bit/pixel
Аудио: 48 kHz, Dolby Digital AC3 2.0, 192 kbps MVO
Аудио: 48 kHz, Dolby Digital AC3 2.0, 192 kbps Английский

MediaInfo

Общее
Полное имя : Bliznecy.1988.HDTVRip_[New-team]_by_AVP_Studio.avi
Формат : AVI
Формат/Информация : Audio Video Interleave
Размер файла : 1,46 Гбайт
Продолжительность : 1 ч. 46 м.
Общий поток : 1960 Кбит/сек
Программа кодирования : VirtualDubModRus 1.5.10.2 (build 2542/release)
Библиотека кодирования : VirtualDubMod build 2542/release
Видео
Идентификатор : 0
Формат : MPEG-4 Visual
Профиль формата : Advanced Simple@L5
Параметр BVOP формата : 1
Параметр QPel формата : Нет
Параметр GMC формата : Без точки перехода
Параметр матрицы формата : Выборочная
Идентификатор кодека : XVID
Идентификатор кодека/Подсказка : XviD
Продолжительность : 1 ч. 46 м.
Битрейт : 1562 Кбит/сек
Ширина : 720 пикселей
Высота : 400 пикселей
Соотношение сторон : 16:9
Частота кадров : 23,976 кадра/сек
Цветовое пространство : YUV
Субдискретизация насыщенности : 4:2:0
Битовая глубина : 8 бит
Тип развёртки : Прогрессивная
Метод сжатия : С потерями
Бит/(Пиксели*Кадры) : 0.226
Размер потока : 1,16 Гбайт (80%)
Библиотека кодирования : XviD 73
Аудио #1
Идентификатор : 1
Формат : AC-3
Формат/Информация : Audio Coding 3
Расширение режима : CM (complete main)
Параметр Endianness формата : Big
Идентификатор кодека : 2000
Продолжительность : 1 ч. 46 м.
Вид битрейта : Постоянный
Битрейт : 192 Кбит/сек
Каналы : 2 канала
Расположение каналов : Front: L R
Частота : 48,0 КГц
Битовая глубина : 16 бит
Метод сжатия : С потерями
Размер потока : 147 Мбайт (10%)
Выравнивание : Разделение по промежуткам
Продолжительность промежутка : 42 мс. (1,00 видеокадр)
Время предзагрузки промежутка : 500 мс.
Аудио #2
Идентификатор : 2
Формат : AC-3
Формат/Информация : Audio Coding 3
Профиль формата : Dolby Digital
Расширение режима : CM (complete main)
Параметр Endianness формата : Big
Идентификатор кодека : 2000
Продолжительность : 1 ч. 46 м.
Вид битрейта : Постоянный
Битрейт : 192 Кбит/сек
Каналы : 2 канала
Расположение каналов : Front: L R
Частота : 48,0 КГц
Битовая глубина : 16 бит
Метод сжатия : С потерями
Размер потока : 147 Мбайт (10%)
Выравнивание : Разделение по промежуткам
Продолжительность промежутка : 42 мс. (1,00 видеокадр)
Время предзагрузки промежутка : 500 мс

Скриншоты



With ratio 0.05 you can not download torrents

Похожие темы
[Profile] [PM]
Display posts:    
Reply to topic

Current time is: 28-Oct 21:06

All times are UTC ± 0



You cannot post new topics in this forum
You cannot reply to topics in this forum
You cannot edit your posts in this forum
You cannot delete your posts in this forum
You cannot vote in polls in this forum
You cannot attach files in this forum
You can download files in this forum