Факап, или Хуже не бывает / Nicht mein Tag (Петер Торварт / Peter Thorwarth) [2014, Германия, боевик, комедия, криминал, приключения, BDRip-AVC] Dub + Sub Rus, Ger + Original Ger

Reply to topic
DL-List and Torrent activity
Size:  4.08 GB   |    Registered:  5 years 1 month   |    Completed:  2 times

Seeder not seen: 4 years 8 months

 
   
 
 
 
Author Message

IVAN@190282 ®

Gender: Male

Longevity: 5 years 2 months

Posts: 411

Location: Иваново



Награды: 3 (Подробнее)

Активный релизер (200 релизов) (Количество: 1) Активный релизер (250 релизов) (Количество: 1) Активный релизер (300 релизов) (Количество: 1)

Post 08-Sep-2015 09:46

[Quote]

Факап, или Хуже не бываетNicht mein Tag

Страна: Германия
Жанр: Боевик, комедия, криминал, приключения
Год выпуска: 2014
Продолжительность: 01:50:15
Перевод: Профессиональный (дублированный) Blurbird
Cубтитры: русские,немецкие
Оригинальная аудиодорожка: немецкий
Режиссер: Петер Торварт/ Peter Thorwarth
В ролях: Мориц Бляйбтрой, Аксель Штайн, Жасмин Герат, Анна Мария Мюэ, Неля Кипер, Бен Рюдингер, Касэм Ходжа, Беким Гури, Тобиас Нид, Максвелл Рихтер
Описание: Тиль Райнер – банковский клерк 30-ти лет. Каждый новый день его жизни похож на предыдущий. Отношения с супругой больше напоминают привычку. Но неожиданно происходит то, что позволяет выбраться ему из повседневной рутины. Тиля захватывает в заложники грабитель банка, в котором наш герой узнает заявителя по кредиту – Наппо.
Полиция разрабатывает план перехват, устанавливает блокпосты, поэтому Наппо решает спрятать заложника в багажник и исчезнуть с награбленным! Но все идет не по плану и Наппо скрывается вместе с Тиллем! После того как шок от случившегося немного проходит, Тиль забывает про какое-либо благоразумие и погружается с головой в приключения вместе со своим похитителем…
Доп. информация:
Релиз группы:
Качество видео: BDRip-AVC | Факап, или Хуже не бывает / Nicht mein Tag (2014) BD-Remux -BLUEBIRD|BLUEBIRD
Формат видео: MKV
Видео: 1148x488 (2:35:1), 25,00 fps, 4363 Кbps, 0.312 bit/pixe
Аудио: 48 kHz, AC3 Dolby Digital, 3/2 (L,C,R,l,r) + LFE ch, ~384.00 kbps avg DUB
Аудио 2: 48 kHz, AC3 Dolby Digital, 3/2 (L,C,R,l,r) + LFE ch, ~448.00 kbps avg GER
Формат субтитров: softsub (SRT)
Доп. информация о субтитрах: отключаемые

MediaInfo

General
Unique ID : 174932726721845740662495759741004104465 (0x839AD1527923C0AD95B7EAE550954311)
Complete name : E:\Мои рипы\Факап или хуже не бывает\Nicht mein Tag by_IVAN@190282.mkv
Format : Matroska
Format version : Version 4 / Version 2
File size : 4.08 GiB
Duration : 1h 50mn
Overall bit rate : 5 300 Kbps
Encoded date : UTC 2015-09-15 16:17:46
Writing application : mkvmerge v8.2.0 ('World of Adventure') 64bit
Writing library : libebml v1.3.1 + libmatroska v1.4.2
Attachements : 231590000032.png
DURATION : 01:46:39.800000000
NUMBER_OF_FRAMES : 1259
NUMBER_OF_BYTES : 55193
_STATISTICS_WRITING_APP : mkvmerge v8.2.0 ('World of Adventure') 64bit
_STATISTICS_WRITING_DATE_UT : 2015-09-15 16:17:46
_STATISTICS_TAGS : BPS DURATION NUMBER_OF_FRAMES NUMBER_OF_BYTES
Video
ID : 1
Format : AVC
Format/Info : Advanced Video Codec
Format profile : High@L4.1
Format settings, CABAC : Yes
Format settings, ReFrames : 12 frames
Codec ID : V_MPEG4/ISO/AVC
Duration : 1h 50mn
Bit rate : 4 363 Kbps
Width : 1 148 pixels
Height : 488 pixels
Display aspect ratio : 2.35:1
Frame rate mode : Constant
Frame rate : 25.000 fps
Color space : YUV
Chroma subsampling : 4:2:0
Bit depth : 8 bits
Scan type : Progressive
Bits/(Pixel*Frame) : 0.312
Stream size : 3.36 GiB (82%)
Title : Nicht mein Tag by_IVAN@190282
Writing library : x264 core 148 r2597kMod e86f3a1
Encoding settings : cabac=1 / ref=12 / deblock=1:-3:-2 / analyse=0x3:0x133 / me=umh / subme=11 / psy=1 / fade_compensate=0.00 / psy_rd=1.00:0.05 / mixed_ref=1 / me_range=48 / chroma_me=1 / trellis=2 / 8x8dct=1 / cqm=0 / deadzone=21,11 / fast_pskip=0 / chroma_qp_offset=-3 / threads=6 / lookahead_threads=6 / sliced_threads=0 / nr=0 / decimate=1 / interlaced=0 / bluray_compat=0 / constrained_intra=0 / fgo=0 / bframes=16 / b_pyramid=2 / b_adapt=2 / b_bias=0 / direct=3 / weightb=1 / open_gop=0 / weightp=2 / keyint=240 / keyint_min=24 / scenecut=40 / intra_refresh=0 / rc_lookahead=60 / rc=crf / mbtree=0 / crf=16.3000 / qcomp=0.60 / qpmin=0 / qpmax=69 / qpstep=4 / vbv_maxrate=50000 / vbv_bufsize=62500 / crf_max=0.0 / nal_hrd=none / filler=0 / ip_ratio=1.40 / pb_ratio=1.30 / aq=2:1.10
Language : English
Default : Yes
Forced : No
Color range : Limited
Color primaries : BT.709
Transfer characteristics : BT.709
Matrix coefficients : BT.709
DURATION : 01:50:17.120000000
NUMBER_OF_FRAMES : 165428
NUMBER_OF_BYTES : 3693767901
_STATISTICS_WRITING_APP : mkvmerge v8.2.0 ('World of Adventure') 64bit
_STATISTICS_WRITING_DATE_UT : 2015-09-15 16:17:46
_STATISTICS_TAGS : BPS DURATION NUMBER_OF_FRAMES NUMBER_OF_BYTES
Audio #1
ID : 2
Format : AC-3
Format/Info : Audio Coding 3
Mode extension : CM (complete main)
Format settings, Endianness : Big
Codec ID : A_AC3
Duration : 1h 50mn
Bit rate mode : Constant
Bit rate : 384 Kbps
Channel(s) : 6 channels
Channel positions : Front: L C R, Side: L R, LFE
Sampling rate : 48.0 KHz
Compression mode : Lossy
Stream size : 303 MiB (7%)
Title : Dub
Language : Russian
Default : Yes
Forced : No
Audio #2
ID : 3
Format : AC-3
Format/Info : Audio Coding 3
Mode extension : CM (complete main)
Format settings, Endianness : Big
Codec ID : A_AC3
Duration : 1h 50mn
Bit rate mode : Constant
Bit rate : 448 Kbps
Channel(s) : 6 channels
Channel positions : Front: L C R, Side: L R, LFE
Sampling rate : 48.0 KHz
Compression mode : Lossy
Stream size : 353 MiB (8%)
Title : Ger
Language : German
Default : No
Forced : No
Text #1
ID : 4
Format : UTF-8
Codec ID : S_TEXT/UTF8
Codec ID/Info : UTF-8 Plain Text
Title : Rus forsed
Language : Russian
Default : Yes
Forced : Yes
Text #2
ID : 5
Format : UTF-8
Codec ID : S_TEXT/UTF8
Codec ID/Info : UTF-8 Plain Text
Title : Ger
Language : German
Default : No
Forced : No
Menu
00:00:00.000 : en:00:00:00.000
00:01:16.520 : en:00:01:16.520
00:13:46.800 : en:00:13:46.800
00:25:31.200 : en:00:25:31.200
00:37:31.120 : en:00:37:31.120
00:52:57.160 : en:00:52:57.160
01:05:35.880 : en:01:05:35.880
01:20:27.000 : en:01:20:27.000
01:34:40.520 : en:01:34:40.520

x264 log

VIDEO ENCODING
x264 [info]: frame I:1338 Avg QP:15.87 size:107424 PSNR Mean Y:46.46 U:49.96 V:49.48 Avg:47.29 Global:46.56
x264 [info]: frame P:41549 Avg QP:17.35 size: 40602 PSNR Mean Y:45.19 U:49.04 V:48.50 Avg:46.07 Global:45.31
x264 [info]: frame B:122541 Avg QP:19.73 size: 15204 PSNR Mean Y:44.21 U:48.49 V:47.87 Avg:45.15 Global:44.28
x264 [info]: consecutive B-frames: 4.0% 4.5% 11.8% 26.6% 18.9% 25.1% 4.5% 1.4% 0.9% 0.6% 0.4% 0.2% 0.3% 0.2% 0.2% 0.0% 0.3%
x264 [total]: encoded 165428 frames, 5.60 fps, 4465.71 kb/s, duration 8:12:46.70

Знаете ли Вы что

• Фильм посвящен Кристиану Таше.
• Номерной знак «DO-PE 69» на Ford Mustang GT Fastback такой же, как и у Ford Taunus в фильме «Верняк» (1999) (первый полнометражный фильм Петера Торварта).
• В качестве амстердамского стриптиз клуба использовался ночной клуб Pascha, расположенный в Кёльне, в Германии.

Ошибки в фильме

• Герои говорят, что Ford Mustang 1968 года, но это модель 1967 года. Только в этом году были характерные воздухозаборники позади двери.

Скриншот c названием фильма

Скриншоты


Убедительная просьба пожалуйста кто скачал не бросайте раздачу!!!
[dis-tracker.ru].t9905.torrent 
 GOLD TORRENT! DOWNLOAD TRAFFIC DOES NOT CONSIDER! 
Torrent: Registered [ 2015-09-15 19:21 ] · 6A5CACC97A3304E9EC6FF0DDE432B98B84456F85

Download .torrent

Download

10 KB

Status: checked
Completed: 2 times
Size: 4.08 GB
terms.php
Похожие темы
[Profile] [PM]
Display posts:    
Reply to topic

Current time is: 25-Oct 13:49

All times are UTC ± 0



You cannot post new topics in this forum
You cannot reply to topics in this forum
You cannot edit your posts in this forum
You cannot delete your posts in this forum
You cannot vote in polls in this forum
You cannot attach files in this forum
You can download files in this forum