Заражённая 2 / Contracted: Phase II (2015) WEB-DL 720p | L1

Reply to topic
DL-List and Torrent activity
Size:  2.51 GB   |    Registered:  5 years 1 month   |    Completed:  4 times

Seeder not seen: 4 years 11 months

 
   
 
 
 
Author Message

Dream ®

Gender: Male

Longevity: 3 years 5 months

Posts: 2164



Награды: None

Post 05-Sep-2015 11:23

[Quote]


Название: Заражённая 2 (Инфекция: Фаза 2)
Оригинальное название: Contracted: Phase II
Год выпуска: 2015
Жанр: Ужасы, триллер, драма
Выпущено: США, BoulderLight Pictures
Режиссер: Джош Форбс
В ролях: Мэтт Мерсер, Марианна Палка, Морган Питер Браун, Анна Лоре, Лорел Вэйл, Неджарра Таунсенд, Сюзанн Восс, Элис МакДональд, Кэролин Уильямс, Ной Дорси
Описание:
Вторая часть фильма «Заражённая» расскажет зрителям, чем же закончится история с загадочным вирусом, который Саманта подцепила после ночи с незнакомцем. Теперь Райли предстоит в одиночку найти лекарство, остановить распространение вируса и, таким образом, спасти не только себя, но и, возможно, всё человечество
[imdb]http://www.imdb.com/title/tt4255110[/imdb]
Продолжительность: 01:18:24
Качество видео: WEB-DL 720p
Перевод: Одноголосый закадровый любительский - (Хихикающий доктор)
Автор перевода: (Хихикающий доктор) и anton1
Вид субтитров: Вшитые, отключаемые
Язык субтитров: Английский
Видео: AVC/H.264, 3925 Кбит/с, 1280х530
Аудио 1: Русский (АС3, 2 ch, 192 Кбит/с
Аудио 2: Английский, (AС3, 6 ch, 384 Кбит/с)
Семпл: Скачать

Mediainfo:

Общее
Уникальный идентификатор : 213340050206887554311369454581741931521 (0xA07FCC920482ECFB8C6E8924391A4C01)
Полное имя : E:MMMMContracted.Phase.II.2015.720p.WEB-DL.mkv
Формат : Matroska
Версия формата : Version 4 / Version 2
Размер файла : 2,51 Гбайт
Продолжительность : 1 ч. 18 м.
Общий поток : 4592 Кбит/сек
Название фильма : Contracted.Phase.II.2015.720p.WEB-DL
Дата кодирования : UTC 2015-09-05 04:52:10
Программа кодирования : mkvmerge v6.9.1 ('Blue Panther') 64bit built on Apr 18 2014 18:23:38
Библиотека кодирования : libebml v1.3.0 + libmatroska v1.4.1
Видео
Идентификатор : 1
Формат : AVC
Формат/Информация : Advanced Video Codec
Профиль формата : Main@L3.1
Параметр CABAC формата : Нет
Параметр ReFrames формата : 2 кадра
Идентификатор кодека : V_MPEG4/ISO/AVC
Продолжительность : 1 ч. 18 м.
Битрейт : 3925 Кбит/сек
Ширина : 1280 пикселей
Высота : 530 пикселей
Соотношение сторон : 2,40:1
Режим частоты кадров : Постоянный
Частота кадров : 23,976 кадра/сек
Цветовое пространство : YUV
Субдискретизация насыщенности : 4:2:0
Битовая глубина : 8 бит
Тип развёртки : Прогрессивная
Бит/(Пиксели*Кадры) : 0.241
Размер потока : 2,15 Гбайт (85%)
Заголовок : Contracted.Phase.II.2015
Язык : English
Default : Да
Forced : Нет
Цветовой диапазон : Limited
Основные цвета : BT.709
Характеристики трансфера : BT.709
Коэффициенты матрицы : BT.709
Аудио #1
Идентификатор : 2
Формат : AC-3
Формат/Информация : Audio Coding 3
Расширение режима : CM (complete main)
Параметр Endianness формата : Big
Идентификатор кодека : A_AC3
Продолжительность : 1 ч. 18 м.
Вид битрейта : Постоянный
Битрейт : 192 Кбит/сек
Каналы : 2 канала
Расположение каналов : Front: L R
Частота : 44,1 КГц
Метод сжатия : С потерями
Размер потока : 108 Мбайт (4%)
Заголовок : Xixidoktor
Язык : Russian
Default : Да
Forced : Нет
Аудио #2
Идентификатор : 3
Формат : AC-3
Формат/Информация : Audio Coding 3
Расширение режима : CM (complete main)
Параметр Endianness формата : Big
Идентификатор кодека : A_AC3
Продолжительность : 1 ч. 18 м.
Вид битрейта : Постоянный
Битрейт : 384 Кбит/сек
Каналы : 6 каналов
Расположение каналов : Front: L C R, Side: L R, LFE
Частота : 48,0 КГц
Метод сжатия : С потерями
Размер потока : 215 Мбайт (8%)
Заголовок : original
Язык : English
Default : Нет
Forced : Нет
Текст
Идентификатор : 4
Формат : UTF-8
Идентификатор кодека : S_TEXT/UTF8
Идентификатор кодека/Информация : UTF-8 Plain Text
Язык : English
Default : Нет
Forced : Нет
Меню
00:00:00.000 : en:1
00:11:11.000 : en:2
00:19:44.000 : en:3
00:31:55.000 : en:4
00:38:54.000 : en:5
00:49:24.000 : en:6
00:59:18.000 : en:7
01:11:30.000 : en:8

Скриншоты



If your ratio falls below 0.3, you will not be able to download Torrents! More about the rating.

[dis-tracker.ru].t9874.torrent 
Torrent: Registered [ 2015-09-05 11:23 ] · BD315DE0F690F2FBAD5190F9A4AA8CA5024AAEE6

Download .torrent

Download

13 KB

Status: checked
Completed: 4 times
Size: 2.51 GB
terms.php
Похожие темы
[Profile] [PM]
Display posts:    
Reply to topic

Current time is: 25-Oct 17:27

All times are UTC ± 0



You cannot post new topics in this forum
You cannot reply to topics in this forum
You cannot edit your posts in this forum
You cannot delete your posts in this forum
You cannot vote in polls in this forum
You cannot attach files in this forum
You can download files in this forum