Страдающий амнезией / Amnesiac (2015) WEBRip 720p | L2

Reply to topic
DL-List and Torrent activity
Size:  2.9 GB   |    Registered:  5 years 2 months   |    Completed:  5 times

Seeder not seen: 5 years 1 month

 
   
 
 
 
Author Message

Dream ®

Gender: Male

Longevity: 3 years 5 months

Posts: 2164



Награды: None

Post 02-Sep-2015 17:34

[Quote]


Название: Страдающий амнезией
Оригинальное название: Amnesiac
Год выпуска: 2015
Жанр: Ужасы, триллер, драма
Выпущено: США, Xlrator media, Infra-Red Films
Режиссер: Майкл Полиш
В ролях: Кейт Босворт, Уэс Бентли, Оливия Роуз Кигэн, Шэшони Холл, Ричард Рили, Патрик Бошо, Миа Баррон
Описание:
История о человеке, который просыпается в постели с потерей памяти, в результате несчастного случая.Он начинают подозревать, что его жена, может вовсе не его настоящая жена. И что паутина лжи и обмана окутала дом, в котором он превратился в заключенного.
[imdb]http://www.imdb.com/title/tt2837336[/imdb]
Продолжительность: 01:24:30
Качество видео: WEBRip 720p
Перевод: Двухголосый закадровый любительский - (datynet & Galina Vasyukova)
Автор перевода: Куценко
Видео: XviD, 4242 Кбит/с, 1280x536
Аудио 1: Русский (AC3, 2 ch, 192 Кбит/с)
Аудио 2: Английский, (AС3, 6 ch, 384 Кбит/с)
Семпл: Скачать

Mediainfo:

Общее
Уникальный идентификатор : 237646492174523920796819832651761956767 (0xB2C90CAF07C0FE9F8BBC45452479B79F)
Полное имя : E:MMMMAmnesiac.2015.720p.WEBRip.mkv
Формат : Matroska
Версия формата : Version 4 / Version 2
Размер файла : 2,90 Гбайт
Продолжительность : 1 ч. 24 м.
Общий поток : 4915 Кбит/сек
Дата кодирования : UTC 2015-09-02 13:00:31
Программа кодирования : mkvmerge v6.9.1 ('Blue Panther') 64bit built on Apr 18 2014 18:23:38
Библиотека кодирования : libebml v1.3.0 + libmatroska v1.4.1
Видео
Идентификатор : 1
Формат : MPEG-4 Visual
Профиль формата : Simple@L5
Параметр BVOP формата : Нет
Параметр QPel формата : Нет
Параметр GMC формата : Без точки перехода
Параметр матрицы формата : Default (H.263)
Идентификатор кодека : V_MS/VFW/FOURCC / XVID
Идентификатор кодека/Подсказка : XviD
Битрейт : 4242 Кбит/сек
Ширина : 1280 пикселей
Высота : 536 пикселей
Соотношение сторон : 2,40:1
Соотношение сторон в оригинале : 2,40:1
Режим частоты кадров : Переменный
Цветовое пространство : YUV
Субдискретизация насыщенности : 4:2:0
Битовая глубина : 8 бит
Тип развёртки : Прогрессивная
Метод сжатия : С потерями
Библиотека кодирования : Lavc56.13.100
Язык : English
Default : Да
Forced : Нет
Аудио #1
Идентификатор : 2
Формат : AC-3
Формат/Информация : Audio Coding 3
Расширение режима : CM (complete main)
Параметр Endianness формата : Big
Идентификатор кодека : A_AC3
Продолжительность : 1 ч. 24 м.
Вид битрейта : Постоянный
Битрейт : 192 Кбит/сек
Каналы : 2 канала
Расположение каналов : Front: L R
Частота : 48,0 КГц
Метод сжатия : С потерями
Размер потока : 116 Мбайт (4%)
Заголовок : Galina Vasyukova & datynet
Язык : Russian
Default : Да
Forced : Нет
Аудио #2
Идентификатор : 3
Формат : AC-3
Формат/Информация : Audio Coding 3
Расширение режима : CM (complete main)
Параметр Endianness формата : Big
Идентификатор кодека : A_AC3
Продолжительность : 1 ч. 24 м.
Вид битрейта : Постоянный
Битрейт : 384 Кбит/сек
Каналы : 6 каналов
Расположение каналов : Front: L C R, Side: L R, LFE
Частота : 48,0 КГц
Метод сжатия : С потерями
Размер потока : 232 Мбайт (8%)
Заголовок : original
Язык : English
Default : Нет
Forced : Нет

Скриншоты



With ratio 0.05 you can not download torrents

[Profile] [PM]
Display posts:    
Reply to topic

Current time is: 24-Nov 15:27

All times are UTC ± 0



You cannot post new topics in this forum
You cannot reply to topics in this forum
You cannot edit your posts in this forum
You cannot delete your posts in this forum
You cannot vote in polls in this forum
You cannot attach files in this forum
You can download files in this forum