Левша / Southpaw (2015) WEB-DL 720p | iTunes

Reply to topic
DL-List and Torrent activity
Size:  3.69 GB   |    Registered:  5 years 1 month   |    Completed:  4 times

Seeder not seen: 5 years 1 month

 
   
 
 
 
Author Message

Dream ®

Gender: Male

Longevity: 3 years 5 months

Posts: 2164



Награды: None

Post 01-Sep-2015 19:28

[Quote]

Левша / Southpaw (2015) WEB-DL 720p-
Производство: США / Escape Artists, Fuqua Films, Riche Productions, The Weinstein Company
Жанр: Боевик, Криминал, Драма, Триллер
Режиссер: Антуан Фукуа
Продюсер: Тодд Блэк, Джейсон Блюменталь, Антуан Фукуа
Актеры: Джейк Джилленхол, Рэйчел Макадамс, Наоми Харрис, Форест Уитакер, Кёртис "50 Cent" Джексон
Описание:
У боксера Билли Хоупа все было прекрасно: звание чемпиона, красавица-жена и любимая дочка. Но фортуна отворачивается от него: при трагических обстоятельствах погибает любимая жена, дисквалификация на ринге, нулевые доходы, суд лишает его родительских прав… Хоуп должен отстоять звание чемпиона и вернуть дочь. Есть ли у Хоупа шансы на победу? Все решит его знаменитый хук левой…
[imdb]http://www.imdb.com/title/tt1798684[/imdb] [kp]http://www.kinopoisk.ru/film/573990[/kp]
Дата мировой премьеры: 15 июня 2015
Дата премьеры в России: 30 июля 2015, «Парадиз»
Продолжительность: 01:58:37
Качество видео: WEB-DL 720p
Перевод: Дублированный (iTunes)
Субтитры: Отсутствуют
Видео: MPEG-4 AVC/H.264, 3 983 Kbps, 960x532@1280x532
Аудио: AC3, 6 ch, 384 Кбит/с - Русский

Mediainfo:

[code]
General
Unique ID : 228246693951804474091703413682367760027 (0xABB6B6D9AC210FD488C6E6C9DC7A069B)
Complete name : Levsha WEB DL 720p.2015.mkv
Format : Matroska
Format version : Version 4 / Version 2
File size : 3.69 GiB
Duration : 1h 58mn
Overall bit rate : 4 456 Kbps
Encoded date : UTC 2015-08-31 18:09:34
Writing application : mkvmerge v6.9.1 ('Blue Panther') 64bit built on Apr 18 2014 18:23:38
Writing library : libebml v1.3.0 + libmatroska v1.4.1
Video
ID : 1
Format : AVC
Format/Info : Advanced Video Codec
Format profile : Main@L3.1
Format settings, CABAC : No
Format settings, ReFrames : 2 frames
Codec ID : V_MPEG4/ISO/AVC
Duration : 1h 58mn
Bit rate : 3 983 Kbps
Width : 960 pixels
Height : 532 pixels
Display aspect ratio : 2.40:1
Frame rate mode : Constant
Frame rate : 25.000 fps
Color space : YUV
Chroma subsampling : 4:2:0
Bit depth : 8 bits
Scan type : Progressive
Bits/(Pixel*Frame) : 0.312
Stream size : 3.30 GiB (89%)
Language : English
Default : Yes
Forced : No
Color primaries : BT.709
Transfer characteristics : BT.709
Matrix coefficients : BT.709
Audio
ID : 2
Format : AC-3
Format/Info : Audio Coding 3
Mode extension : CM (complete main)
Format settings, Endianness : Big
Codec ID : A_AC3
Duration : 1h 58mn
Bit rate mode : Constant
Bit rate : 384 Kbps
Channel count : 6 channels
Channel positions : Front: L C R, Side: L R, LFE
Sampling rate : 48.0 KHz
Bit depth : 16 bits
Compression mode : Lossy
Stream size : 326 MiB (9%)
Language : Russian
Default : Yes
Forced : No
Menu
00:00:00.000 : en:1
00:08:27.000 : en:2
00:19:11.000 : en:3
00:29:22.000 : en:4
00:38:07.000 : en:5
00:47:06.000 : en:6
00:57:02.000 : en:7
01:08:03.000 : en:8
01:18:25.000 : en:9
01:29:27.000 : en:10
01:35:17.000 : en:11
01:47:37.000 : en:12
01:54:46.000 : en:13

Скриншоты

With ratio 0.05 you can not download torrents

Похожие темы
[Profile] [PM]
Display posts:    
Reply to topic

Current time is: 29-Oct 08:24

All times are UTC ± 0



You cannot post new topics in this forum
You cannot reply to topics in this forum
You cannot edit your posts in this forum
You cannot delete your posts in this forum
You cannot vote in polls in this forum
You cannot attach files in this forum
You can download files in this forum