Спеши любить / Памятная прогулка / A Walk To Remember (Адам Шенкман / Adam Shankman) [2002, США, мелодрама, драма, BDRip] Dub

Reply to topic
DL-List and Torrent activity
Size:  1.46 GB   |    Registered:  5 years 1 month   |    Completed:  2 times
Seeders:  9  [  0 KB/s  ]   Show peers in full details
 
   
 
 
Author Message

Flash ®

Gender: Unknown

Longevity: 5 years 1 month

Posts: 1



Награды: None

Post 29-Aug-2015 09:08

[Quote]

Спеши любить / Памятная прогулка / A Walk To Remember-«Наша любовь, как ветер, ее не видишь, но чувствуешь...»- Страна: США
Студии: DiNovi Pictures, Gaylord Films, Pandora Cinema, Warner Bros. Pictures
Жанр: мелодрама, драма
Год выпуска: 2002
Продолжительность: 01:42:00
Перевод: Профессиональный (дублированный) - | Лицензия - R5 |
Cубтитры: нет
Режиссер: Адам Шенкман / Adam Shankman-В ролях: Шэйн Уэст, Мэнди Мур, Питер Койот, Дэрил Ханна, Лорен Джерман, Клейн Кроуфорд, Аль Томпсон, Пас де ла Уэрта...-Описание: Лэндон Картер — кумир своей школы: он независим, красив и жесток к изгоям. И конечно, он не замечает невзрачную Джэйми, думающую только об учебе. После очередной дурацкой выходки Картера заставляют заниматься с отстающими и играть в школьном спектакле.
Тут уж ему не обойтись без помощи скромной отличницы. Джэйми соглашается помочь Лэндону, но только если он пообещает, что не будет влюбляться в нее. Самонадеянный парень охотно дает клятву, но вскоре он убедится, что сдержать ее будет очень непросто…
-Автор рипа: Flash- -Качество видео: BDRip | A.Walk.To.Remember.2002.BDRemux.1080p.NovaLan |
Формат видео: AVI
Видео: 720x304, 23.976 fps, XviD build 73 ~1593 kbps avg, 0.305 bit/pixel
Аудио: 48 kHz, AC3 Dolby Digital, 3/2 (L,C,R,l,r) + LFE ch, ~448.00 kbps -

Дополнительно о фильме:

Производство, студия дубляжа, прокат:

Знаете ли вы, что...

Отчёт MediaInfo

General
Complete name : D:\A.Walk.To.Remember.2002.BDRip.By_Flash.avi
Format : AVI
Format/Info : Audio Video Interleave
File size : 1.46 GiB
Duration : 1h 41mn
Overall bit rate : 2 050 Kbps
Writing application : VirtualDubMod 1.5.10.3 | www.virtualdub-fr.org || (build 2550/release)
Writing library : VirtualDubMod build 2550/release
Video
ID : 0
Format : MPEG-4 Visual
Format profile : Advanced Simple@L5
Format settings, BVOP : 1
Format settings, QPel : No
Format settings, GMC : No warppoints
Format settings, Matrix : Custom
Codec ID : XVID
Codec ID/Hint : XviD
Duration : 1h 41mn
Bit rate : 1 593 Kbps
Width : 720 pixels
Height : 304 pixels
Display aspect ratio : 2.35:1
Frame rate : 23.976 fps
Color space : YUV
Chroma subsampling : 4:2:0
Bit depth : 8 bits
Scan type : Progressive
Compression mode : Lossy
Bits/(Pixel*Frame) : 0.304
Stream size : 1.13 GiB (78%)
Writing library : XviD 73
Audio
ID : 1
Format : AC-3
Format/Info : Audio Coding 3
Mode extension : CM (complete main)
Format settings, Endianness : Big
Codec ID : 2000
Duration : 1h 41mn
Bit rate mode : Constant
Bit rate : 448 Kbps
Channel(s) : 6 channels
Channel positions : Front: L C R, Side: L R, LFE
Sampling rate : 48.0 KHz
Bit depth : 16 bits
Compression mode : Lossy
Stream size : 327 MiB (22%)
Alignment : Split accross interleaves
Interleave, duration : 42 ms (1.00 video frame)
Interleave, preload duration : 500 ms

Скриншот c названием фильма

Скриншоты

If your ratio falls below 0.3, you will not be able to download Torrents! More about the rating.

[dis-tracker.ru].t9803.torrent 
Torrent: Registered [ 2015-08-29 09:08 ] · 4599916B113D52D65D8770CF7ECA91CDD4C526E1

Download .torrent

Download

15 KB

Status: checked
Completed: 2 times
Size: 1.46 GB
terms.php
Похожие темы
[Profile] [PM]
Display posts:    
Reply to topic

Current time is: 26-Oct 06:18

All times are UTC ± 0



You cannot post new topics in this forum
You cannot reply to topics in this forum
You cannot edit your posts in this forum
You cannot delete your posts in this forum
You cannot vote in polls in this forum
You cannot attach files in this forum
You can download files in this forum