Безумный Макс: Дорога ярости / Mad Max: Fury Road (2015) BDRip 1080p Лицензия

Reply to topic
DL-List and Torrent activity
Size:  14.8 GB   |    Registered:  5 years 2 months   |    Completed:  2 times

Seeder not seen: 4 years 9 months

 
   
 
 
 
Author Message

Dream ®

Gender: Male

Longevity: 3 years 5 months

Posts: 2164



Награды: None

Post 28-Aug-2015 00:32

[Quote]


Информация о фильме
Название: Безумный Макс: Дорога ярости
Оригинальное название: Mad Max: Fury Road
Год выпуска: 2015
Жанр: Фантастика, боевик, триллер, приключения, постапокалипсис
Выпущено: Австралия, США, Kennedy Miller Productions, Village Roadshow Pictures
Режиссер: Джордж Миллер
В ролях: Том Харди, Шарлиз Терон, Николас Холт, Хью Кияс-Бёрн, Джош Хелман, Нэйтан Джонс, Зои Кравиц, Роузи Хантингтон-Уайтли, Райли Кио, Эбби Ли, Кортни Итон, Джон Ховард, Ричард Картер, Иота, Энгус Сэмпсон, Дженнифер Хэйгэн, Меган Гэйл, Мелисса Яффер, Мелита Юришич, Джиллиан Джонс
О фильме: Вскоре после отмщения за смерть жены и сына, Макс Рокатански покинул ряды «Основного силового патруля» и уехал в глушь, где скитается в одиночестве, пока мир медленно падает в последствии нефтяного кризиса и глобальной войны. Не имея ничего, кроме своей машины «Перехватчик», Максу предстоит научиться, как выжить в пост-апокалиптической пустоши и сражаться с жестокими, безжалостными воинами, которые населяют её.
[imdb]http://www.imdb.com/title/tt1392190[/imdb] [kp]http://www.kinopoisk.ru/film/453406[/kp]
Файл
Качество: BDRip (1080p)
Видео: MPEG-4 AVC, 13500 Кбит/с, 1920x800, 23.976 кадр/с
Аудио: Русский (AC3, 6 ch, 448 Кбит/с), (AC3, 6 ch, 640 Кбит/с), (DTS, 6 ch, 1509 Кбит/с), английский (DTS, 6 ch, 1509 Кбит/с)
Размер: 14.8 ГБ
Продолжительность: 02:00:23
Перевод: Дублированный, авторский
Субтитры: Русские, английские
Сохранены оригинальные чаптеры как на Blu-Ray.
Озвучивание - Дублированное (Лицензия), авторское (Матвеев)

Скрытый текст

Aудио#1: Русский: (AC3, 6 ch, 448 Кбит/с) Дублированный (Лицензия)
Aудио#2: Русский: (AC3, 6 ch, 640 Кбит/с) Авторский (А. Матвеев)
Аудио#3: Русский: (DTS, 6 ch, 1509 Кбит/с) Авторский (А. Матвеев)

x264

x264 [info]: frame I:1319 Avg QP:16.36 size:248238
x264 [info]: frame P:43287 Avg QP:19.55 size:111635
x264 [info]: frame B:128582 Avg QP:21.54 size: 54628
x264 [info]: consecutive B-frames: 3.1% 5.1% 9.3% 36.2% 17.9% 19.6% 4.6% 2.4% 0.8% 1.1%
x264 [info]: mb I I16..4: 19.0% 41.9% 39.1%
x264 [info]: mb P I16..4: 4.6% 28.5% 6.7% P16..4: 21.1% 23.3% 6.4% 3.5% 0.4% skip: 5.5%
x264 [info]: mb B I16..4: 1.6% 8.2% 1.8% B16..8: 32.9% 19.9% 3.2% direct: 9.3% skip:23.2% L0:41.3% L1:39.4% BI:19.3%
x264 [info]: 8x8 transform intra:70.0% inter:45.5%
x264 [info]: direct mvs spatial:98.7% temporal:1.3%
x264 [info]: coded y,uvDC,uvAC intra: 90.6% 85.0% 58.9% inter: 38.6% 36.6% 11.7%
x264 [info]: i16 v,h,dc,p: 14% 12% 20% 54%
x264 [info]: i8 v,h,dc,ddl,ddr,vr,hd,vl,hu: 8% 9% 15% 10% 11% 11% 12% 11% 14%
x264 [info]: i4 v,h,dc,ddl,ddr,vr,hd,vl,hu: 12% 12% 12% 7% 11% 11% 12% 9% 14%
x264 [info]: i8c dc,h,v,p: 37% 26% 18% 19%
x264 [info]: Weighted P-Frames: Y:3.9% UV:2.0%
x264 [info]: ref P L0: 56.5% 7.1% 20.0% 9.4% 6.3% 0.7% 0.0%
x264 [info]: ref B L0: 82.4% 13.1% 3.5% 0.9%
x264 [info]: ref B L1: 94.3% 5.7%
x264 [info]: kb/s:13493.85

Инфо-файл

Общее
Уникальный идентификатор : 253015853198789509628382495536744251315 (0xBE5914AFD5A9A21B9ADBA6362E403FB3)
Полное имя : D:ЗагрузкиMad.Max.Fury.Road.2015. x264.BDRip.(1080p).ExKinoRay.mkv
Формат : Matroska
Версия формата : Version 2
Размер файла : 14,8 Гбайт
Продолжительность : 2 ч. 0 м.
Общий поток : 17,6 Мбит/сек
Название фильма : Безумный Макс: Дорога ярости.2015.Rip by: ollan
Дата кодирования : UTC 2015-08-27 18:52:01
Программа кодирования : mkvmerge v5.6.0 ('Kenya Kane') built on May 27 2012 16:44:04
Библиотека кодирования : libebml v1.2.3 + libmatroska v1.3.0
Видео
Идентификатор : 1
Формат : AVC
Формат/Информация : Advanced Video Codec
Профиль формата : High@L4.1
Параметр CABAC формата : Да
Параметр ReFrames формата : 5 кадров
Идентификатор кодека : V_MPEG4/ISO/AVC
Продолжительность : 2 ч. 0 м.
Битрейт : 13,5 Мбит/сек
Ширина : 1920 пикселей
Высота : 800 пикселей
Соотношение сторон : 2,40:1
Режим частоты кадров : Постоянный
Частота кадров : 23,976 кадра/сек
Цветовое пространство : YUV
Субдискретизация насыщенности : 4:2:0
Битовая глубина : 8 бит
Тип развёртки : Прогрессивная
Бит/(Пиксели*Кадры) : 0.367
Размер потока : 11,1 Гбайт (75%)
Библиотека кодирования : x264 core 125 r2200 999b753
Настройки программы : cabac=1 / ref=5 / deblock=1:-3:-3 / analyse=0x3:0x133 / me=umh / subme=11 / psy=1 / psy_rd=1.00:0.10 / mixed_ref=1 / me_range=32 / chroma_me=1 / trellis=2 / 8x8dct=1 / cqm=0 / deadzone=21,11 / fast_pskip=0 / chroma_qp_offset=-3 / threads=12 / lookahead_threads=2 / sliced_threads=0 / nr=0 / decimate=0 / interlaced=0 / bluray_compat=0 / constrained_intra=0 / bframes=9 / b_pyramid=2 / b_adapt=2 / b_bias=0 / direct=3 / weightb=1 / open_gop=0 / weightp=2 / keyint=240 / keyint_min=23 / scenecut=40 / intra_refresh=0 / rc_lookahead=60 / rc=2pass / mbtree=1 / bitrate=13500 / ratetol=1.0 / qcomp=0.60 / qpmin=0 / qpmax=69 / qpstep=4 / cplxblur=20.0 / qblur=0.5 / ip_ratio=1.40 / aq=1:1.00
Язык : English
Default : Да
Forced : Нет
Аудио #1
Идентификатор : 2
Формат : AC-3
Формат/Информация : Audio Coding 3
Расширение режима : CM (complete main)
Параметр Endianness формата : Big
Идентификатор кодека : A_AC3
Продолжительность : 2 ч. 0 м.
Вид битрейта : Постоянный
Битрейт : 448 Кбит/сек
Каналы : 6 каналов
Расположение каналов : Front: L C R, Side: L R, LFE
Частота : 48,0 КГц
Битовая глубина : 16 бит
Метод сжатия : С потерями
Размер потока : 386 Мбайт (3%)
Заголовок : Дублированный (Лицензия)
Язык : Russian
Default : Да
Forced : Нет
Аудио #2
Идентификатор : 3
Формат : AC-3
Формат/Информация : Audio Coding 3
Расширение режима : CM (complete main)
Параметр Endianness формата : Big
Идентификатор кодека : A_AC3
Продолжительность : 2 ч. 0 м.
Вид битрейта : Постоянный
Битрейт : 640 Кбит/сек
Каналы : 6 каналов
Расположение каналов : Front: L C R, Side: L R, LFE
Частота : 48,0 КГц
Битовая глубина : 16 бит
Метод сжатия : С потерями
Размер потока : 551 Мбайт (4%)
Заголовок : Авторский (Матвеев)
Язык : Russian
Default : Нет
Forced : Нет
Аудио #3
Идентификатор : 4
Формат : DTS
Формат/Информация : Digital Theater Systems
Режим : 16
Параметр Endianness формата : Big
Идентификатор кодека : A_DTS
Продолжительность : 2 ч. 0 м.
Вид битрейта : Постоянный
Битрейт : 1509 Кбит/сек
Каналы : 6 каналов
Расположение каналов : Front: L C R, Side: L R, LFE
Частота : 48,0 КГц
Битовая глубина : 24 бит
Метод сжатия : С потерями
Размер потока : 1,27 Гбайт (9%)
Заголовок : Авторский (Матвеев)
Язык : Russian
Default : Нет
Forced : Нет
Аудио #4
Идентификатор : 5
Формат : DTS
Формат/Информация : Digital Theater Systems
Режим : 16
Параметр Endianness формата : Big
Идентификатор кодека : A_DTS
Продолжительность : 2 ч. 0 м.
Вид битрейта : Постоянный
Битрейт : 1510 Кбит/сек
Каналы : 6 каналов
Расположение каналов : Front: L C R, Side: L R, LFE
Частота : 48,0 КГц
Битовая глубина : 24 бит
Метод сжатия : С потерями
Размер потока : 1,27 Гбайт (9%)
Язык : English
Default : Нет
Forced : Нет
Текст #1
Идентификатор : 6
Формат : UTF-8
Идентификатор кодека : S_TEXT/UTF8
Идентификатор кодека/Информация : UTF-8 Plain Text
Заголовок : Forced
Язык : Russian
Default : Да
Forced : Нет
Текст #2
Идентификатор : 7
Формат : UTF-8
Идентификатор кодека : S_TEXT/UTF8
Идентификатор кодека/Информация : UTF-8 Plain Text
Заголовок : Full
Язык : Russian
Default : Нет
Forced : Нет
Текст #3
Идентификатор : 8
Формат : UTF-8
Идентификатор кодека : S_TEXT/UTF8
Идентификатор кодека/Информация : UTF-8 Plain Text
Заголовок : Full
Язык : English
Default : Нет
Forced : Нет
Меню
00:00:00.000 : en:Chapter 01
00:10:42.475 : en:Chapter 02
00:19:06.435 : en:Chapter 03
00:30:12.309 : en:Chapter 04
00:42:55.613 : en:Chapter 05
00:49:33.344 : en:Chapter 06
00:59:55.173 : en:Chapter 07
01:13:02.542 : en:Chapter 08
01:22:08.921 : en:Chapter 09
01:30:02.729 : en:Chapter 10
01:40:39.867 : en:Chapter 11
01:49:12.546 : en:Chapter 12
01:53:06.279 : en:Chapter 13
02:00:23.131 : en:Chapter 14

Скриншоты



With ratio 0.05 you can not download torrents

Похожие темы
[Profile] [PM]
Display posts:    
Reply to topic

Current time is: 29-Oct 04:27

All times are UTC ± 0



You cannot post new topics in this forum
You cannot reply to topics in this forum
You cannot edit your posts in this forum
You cannot delete your posts in this forum
You cannot vote in polls in this forum
You cannot attach files in this forum
You can download files in this forum