Неопознанный звонок / Unknown Caller (2014) BDRip 1080p

Reply to topic
DL-List and Torrent activity
Size:  8.09 GB   |    Registered:  5 years 2 months   |    Completed:  0 times

Seeder not seen: Never

 
   
 
 
 
Author Message

Dream ®

Gender: Male

Longevity: 3 years 5 months

Posts: 2164



Награды: None

Post 27-Aug-2015 16:53

[Quote]


Название: Неопознанный звонок
Оригинальное название: Unknown Caller
Год выпуска: 2014
Жанр: Триллер
Режиссер: Амария Ольсон, Обин Ольсон
В ролях: Дэвид Чисам, Ассаф Коэн, Карла ДеФранко, Луиз Гриффитс, Регина Гарбор, Генри Любатти, Виктор МакКэй, Анджоли Ниман
О фильме:
После того, как кто-то проник в дом, Колин устанавливает высокотехнологичную систему безопасности. Поможет ли она ему или сыграет против него? Психопат закладывает тикающую бомбу под дом, терроризируя семью в течение пару часов, требуя ответа на свой вопрос: 'Кто я?'
[kp]http://www.kinopoisk.ru/film/817243[/kp]
Страна: США, Continental Media, DV3 Productions, Forgery, The
Продолжительность: 01:43:20
Перевод: Любительский одноголосый (Павел Морозов aka PashaUp)
Перевод фильма: Enigma
Кодек: H.264
Качество: BDRip 1080p
Видео: MPEG-4 AVC, 9676 Кбит/с, 1920х804, 23.976 кадр/с
Перевод: Русский, английский (DTS, 6 ch, 755 Кбит/с)
Субтитры: Английские

Инфо-файл

Полное имя : D:Unknown.Caller.2014.x264.BDRip.1080p.NovaLan.mkv
Формат : Matroska
Версия формата : Version 4 / Version 2
Размер файла : 8,09 Гбайт
Продолжительность : 1 ч. 43 м.
Общий поток : 11,2 Мбит/сек
Название фильма : Unknown Caller 2014 - NovaLan
Дата кодирования : UTC 2015-08-27 13:34:42
Программа кодирования : mkvmerge v8.3.0 ('Over the Horizon') 64bit
Библиотека кодирования : libebml v1.3.1 + libmatroska v1.4.2
DURATION : 01:40:30.785000000
NUMBER_OF_FRAMES : 903
NUMBER_OF_BYTES : 28365
_STATISTICS_WRITING_APP : mkvmerge v8.3.0 ('Over the Horizon') 64bit
_STATISTICS_WRITING_DATE_UTC : 2015-08-27 13:34:42
_STATISTICS_TAGS : BPS DURATION NUMBER_OF_FRAMES NUMBER_OF_BYTES
Видео
Идентификатор : 1
Формат : AVC
Формат/Информация : Advanced Video Codec
Профиль формата : High@L4.1
Параметр CABAC формата : Да
Параметр ReFrames формата : 4 кадра
Идентификатор кодека : V_MPEG4/ISO/AVC
Продолжительность : 1 ч. 43 м.
Битрейт : 9676 Кбит/сек
Ширина : 1920 пикселей
Высота : 804 пикселя
Соотношение сторон : 2,40:1
Частота кадров : 23,976 кадра/сек
Цветовое пространство : YUV
Субдискретизация насыщенности : 4:2:0
Битовая глубина : 8 бит
Тип развёртки : Прогрессивная
Бит/(Пиксели*Кадры) : 0.261
Размер потока : 6,84 Гбайт (85%)
Заголовок : Sergei7721
Библиотека кодирования : x264 core 146 r2538 121396c
Настройки программы : cabac=1 / ref=4 / deblock=1:-1:-1 / analyse=0x3:0x113 / me=umh / subme=11 / psy=1 / psy_rd=1.00:0.20 / mixed_ref=1 / me_range=24 / chroma_me=1 / trellis=2 / 8x8dct=1 / cqm=0 / deadzone=21,11 / fast_pskip=0 / chroma_qp_offset=-3 / threads=12 / lookahead_threads=1 / sliced_threads=0 / nr=0 / decimate=0 / interlaced=0 / bluray_compat=0 / constrained_intra=0 / bframes=6 / b_pyramid=2 / b_adapt=2 / b_bias=0 / direct=3 / weightb=1 / open_gop=0 / weightp=2 / keyint=240 / keyint_min=23 / scenecut=40 / intra_refresh=0 / rc_lookahead=40 / rc=2pass / mbtree=0 / bitrate=9676 / ratetol=1.0 / qcomp=0.60 / qpmin=0 / qpmax=69 / qpstep=4 / cplxblur=20.0 / qblur=0.5 / vbv_maxrate=50000 / vbv_bufsize=62500 / nal_hrd=none / filler=0 / ip_ratio=1.40 / pb_ratio=1.30 / aq=1:1.00
Default : Да
Forced : Нет
DURATION : 01:43:20.570000000
NUMBER_OF_FRAMES : 148665
NUMBER_OF_BYTES : 7495079771
_STATISTICS_WRITING_APP : mkvmerge v8.3.0 ('Over the Horizon') 64bit
_STATISTICS_WRITING_DATE_UTC : 2015-08-27 13:34:42
_STATISTICS_TAGS : BPS DURATION NUMBER_OF_FRAMES NUMBER_OF_BYTES
Аудио #1
Идентификатор : 2
Формат : DTS
Формат/Информация : Digital Theater Systems
Идентификатор кодека : A_DTS
Продолжительность : 1 ч. 43 м.
Вид битрейта : Постоянный
Битрейт : 755 Кбит/сек
Каналы : 6 каналов
Расположение каналов : Front: L C R, Side: L R, LFE
Частота : 48,0 КГц
Битовая глубина : 16 бит
Метод сжатия : С потерями
Размер потока : 558 Мбайт (7%)
Язык : Russian
Default : Да
Forced : Нет
Аудио #2
Идентификатор : 3
Формат : DTS
Формат/Информация : Digital Theater Systems
Идентификатор кодека : A_DTS
Продолжительность : 1 ч. 43 м.
Вид битрейта : Постоянный
Битрейт : 755 Кбит/сек
Каналы : 6 каналов
Расположение каналов : Front: L C R, Side: L R, LFE
Частота : 48,0 КГц
Битовая глубина : 16 бит
Метод сжатия : С потерями
Размер потока : 558 Мбайт (7%)
Язык : English
Default : Нет
Forced : Нет
Текст
Идентификатор : 4
Формат : UTF-8
Идентификатор кодека : S_TEXT/UTF8
Идентификатор кодека/Информация : UTF-8 Plain Text
Язык : English
Default : Нет
Forced : Нет
Меню
00:00:00.000 : en:00:00:00.000
00:02:04.665 : en:00:02:04.665
00:08:01.355 : en:00:08:01.355
00:16:37.996 : en:00:16:37.996
00:30:37.419 : en:00:30:37.419
00:37:05.931 : en:00:37:05.931
00:48:41.960 : en:00:48:41.960
00:59:22.934 : en:00:59:22.934
01:14:42.936 : en:01:14:42.936
01:26:14.920 : en:01:26:14.920
01:32:42.974 : en:01:32:42.974
01:40:44.956 : en:01:40:44.956

Скриншоты

[dis-tracker.ru].t9784.torrent
 GOLD TORRENT! DOWNLOAD TRAFFIC DOES NOT CONSIDER! 
Torrent: Registered [ 2015-08-27 16:53 ] · 342791A59E760302DAA54B6456AB3F142E077D4A

Download .torrent

Download

41 KB

Status: checked
Completed: 0 times
Size: 8.09 GB
terms.php
Похожие темы
[Profile] [PM]
Display posts:    
Reply to topic

Current time is: 24-Nov 14:23

All times are UTC ± 0



You cannot post new topics in this forum
You cannot reply to topics in this forum
You cannot edit your posts in this forum
You cannot delete your posts in this forum
You cannot vote in polls in this forum
You cannot attach files in this forum
You can download files in this forum