Сборник мультфильмов - Союзмультфильм: В гостях у сказки [17 шт] (1947-1989) DVDRip

Reply to topic
DL-List and Torrent activity
Size:  4.37 GB   |    Registered:  5 years 2 months   |    Completed:  1 time
Seeders:  20  [  0 KB/s  ]   Leechers:  45  [  0 KB/s  ]   Show peers in full details
 
   
 
 
Author Message

Dream ®

Gender: Male

Longevity: 3 years 5 months

Posts: 2164



Награды: None

Post 25-Aug-2015 19:03

[Quote]

Страна: СССР
Производство: Союзмультфильм
Жанр: мультфильм, короткометражка
Год выпуска: 1947-1989
Продолжительность: 04:55:14
Перевод: Не требуется
Cубтитры: нет
Оригинальная аудиодорожка: русский
Режиссер: Михаил Цехановский, Фёдор Хитрук, Борис Дежкин...
Описание: «Союзмультфильм» — крупнейшая в СССР студия мультипликационных фильмов, основанная в Москве 10 июня 1936 года. Студия создана 10 июня 1936 года с названием — «Союздетмультфильм» (из объединения мелких коллективов Мосфильма, Совкино и Межрабпромфильма), а с 20 августа 1937 года ее переименовали в «Союзмультфильм». Хотя приказ о создании студии был подписан начальником Главного Управления кинофотопромышленности, считается, что решение о создании студии мультипликационных фильмов исходило лично от И. В. Сталина. Для студии были выделены помещения закрытых Советской властью храмов: Николая Чудотворца в Новой слободе на Долгоруковской улице (в советское время — Каляевской улице), где находилось производство рисованных фильмов, и Спаса Преображения «что на Песках» в Спасопесковском переулке на Арбате, где располагалось «Творческое объединение кукольных фильмов». Храм на Арбате в 1991 году был возвращен Русской Православной Церкви, а храм на ул. Долгоруковской не возвращен РПЦ до сих пор, хотя решения о необходимости, в принципе, вернуть Церкви отнятые у неё храмы принимались уже более 15 лет назад. В настоящее время здание на Долгоруковской ул. дом 25 находится в федеральной собственности и закреплено на праве хозяйственного ведения за ФГУП "ТПО "Киностудия «Союзмультфильм».
Первый мультфильм, выпущенный студией, назывался «В Африке жарко» (1936 год). С 1937 года начали выпускаться цветные мультфильмы. На студии снято более 1500 мультфильмов.- [imdb]http://www.imdb.com/title/tt2487736[/imdb] -Источник: DVD5 R5
Качество видео: DVDRip
Формат видео: AVI
Видео: 720x544 (4:3), 25 fps, XviD ~ 1803 kbps avg, 0.184 bit/pixel
Аудио: 48 kHz, Dolby Digital AC3 2.0, 192 kbps

Список мультфильмов

01. Квартет (1947) 0:10:04
02. Новогодняя ночь (1948) 0:10:08
03. Когда зажигаются елки (1950) 0:20:01
04. Друзья-товарищи (1951) 0:18:49
05. Приключения Мурзилки (1956) 0:19:46
06. Двенадцать месяцев (1956) 0:52:44
07. Ровно в три пятнадцать... (1959) 0:20:00
08. Мурзилка и Великан (1960) 0:17:47
09. Винтик и Шпунтик – веселые мастера (1960) 0:18:52
10. Незнайка учится (1961) 0:19:59
11. Что такое хорошо и что такое плохо (1969) 0:09:48
12. По щучему велению (1984) 0:15:58
13. Найда (1984) 0:15:34
14. Кто (1986) 0:08:03
15. Нехочуха (1986) 0:09:11
16. Муму (1987) 0:18:28
17. Моя мама волшебница (1989) 0:10:02

MediaInfo

Общее
Полное имя : Sbornik.multfilmov.1947-1989.DVDRip_[New-team]_by_AVP_Studio.avi
Формат : AVI
Формат/Информация : Audio Video Interleave
Размер файла : 756 Мбайт
Продолжительность : 52 м.
Общий поток : 2005 Кбит/сек
Программа кодирования : VirtualDubMod 1.5.10.3 | www.virtualdub-fr.org || (build 2550/release)
Библиотека кодирования : VirtualDubMod build 2550/release
Видео
Идентификатор : 0
Формат : MPEG-4 Visual
Профиль формата : Advanced Simple@L5
Параметр BVOP формата : 1
Параметр QPel формата : Нет
Параметр GMC формата : Без точки перехода
Параметр матрицы формата : Выборочная
Идентификатор кодека : XVID
Идентификатор кодека/Подсказка : XviD
Продолжительность : 52 м.
Битрейт : 1803 Кбит/сек
Ширина : 720 пикселей
Высота : 544 пикселя
Соотношение сторон : 4:3
Частота кадров : 25,000 кадров/сек
Цветовое пространство : YUV
Субдискретизация насыщенности : 4:2:0
Битовая глубина : 8 бит
Тип развёртки : Прогрессивная
Метод сжатия : С потерями
Бит/(Пиксели*Кадры) : 0.184
Размер потока : 680 Мбайт (90%)
Библиотека кодирования : XviD 73
Аудио
Идентификатор : 1
Формат : AC-3
Формат/Информация : Audio Coding 3
Расширение режима : CM (complete main)
Параметр Endianness формата : Big
Идентификатор кодека : 2000
Продолжительность : 52 м.
Вид битрейта : Постоянный
Битрейт : 192 Кбит/сек
Каналы : 2 канала
Расположение каналов : Front: L R
Частота : 48,0 КГц
Метод сжатия : С потерями
Размер потока : 72,4 Мбайт (10%)
Выравнивание : Разделение по промежуткам
Продолжительность промежутка : 40 мс. (1,00 видеокадр)
Время предзагрузки промежутка : 500 мс

Скриншоты

[dis-tracker.ru].t9753.torrent
 GOLD TORRENT! DOWNLOAD TRAFFIC DOES NOT CONSIDER! 
Torrent: Registered [ 2015-08-25 19:03 ] · C72954701C7F35255425A495D43A24995F60DB8A

Download .torrent

Download

14 KB

Status: checked
Completed: 1 times
Size: 4.37 GB
terms.php
Похожие темы
[Profile] [PM]
Display posts:    
Reply to topic

Current time is: 24-Nov 14:58

All times are UTC ± 0



You cannot post new topics in this forum
You cannot reply to topics in this forum
You cannot edit your posts in this forum
You cannot delete your posts in this forum
You cannot vote in polls in this forum
You cannot attach files in this forum
You can download files in this forum