Охотник (2014) WEBRip

Reply to topic
DL-List and Torrent activity
Size:  700 MB   |    Registered:  5 years 3 months   |    Completed:  1 time

Seeder not seen: 5 years 2 months

 
   
 
 
 
Author Message

Dream ®

Gender: Male

Longevity: 3 years 6 months

Posts: 2164



Награды: None

Post 25-Aug-2015 11:58

[Quote]


Информация о фильме
Оригинальное название: Охотник
Год выпуска: 2014
Жанр: Триллер
Режиссер: Иван Наниев
В ролях: Паша Парфений, Борис Кулибаба, Лусия Андриуца, Иван Банару, Владимир Гончаров, Михаил Цуркан, Анжела Чиобану
О фильме:
Роберт — профессиональный киллер, один из лучших в этом опасном деле. Но иногда даже самые лучшие допускают ошибки. Одна ошибка Роберта, оборачивает все вокруг против него, увлекая в опасную игру всех, кто встречается ему на пути.
Выпущено: Молдова, Shepherd Company & Patria Production
Продолжительность: 01:12:19
Перевод: Не требуется
Файл
Формат: avi
Качество: WEBRip
Видео: XviD, ~ 1215 Кбит/с, 688x288, 25 кадр/с
Аудио: MP3, 2 ch, 128 Кбит/с

МедиаИнфо

Общее
Полное имя : Oxotnik.2014.XviD.WEB-DLRip.by.GeneralFilm.avi
Формат : AVI
Формат/Информация : Audio Video Interleave
Размер файла : 700 Мбайт
Продолжительность : 1 ч. 12 м.
Общий поток : 1352 Кбит/сек
Программа кодирования : VirtualDubMod 1.5.10.3 | www.virtualdub-fr.org || (build 2550/release)
Библиотека кодирования : VirtualDubMod build 2550/release
Видео
Идентификатор : 0
Формат : MPEG-4 Visual
Профиль формата : Advanced Simple@L5
Параметр BVOP формата : 1
Параметр QPel формата : Нет
Параметр GMC формата : Без точки перехода
Параметр матрицы формата : Выборочная
Идентификатор кодека : XVID
Идентификатор кодека/Подсказка : XviD
Продолжительность : 1 ч. 12 м.
Битрейт : 1215 Кбит/сек
Ширина : 688 пикселей
Высота : 288 пикселей
Соотношение сторон : 2,40:1
Частота кадров : 25,000 кадров/сек
Цветовое пространство : YUV
Субдискретизация насыщенности : 4:2:0
Битовая глубина : 8 бит
Тип развёртки : Прогрессивная
Метод сжатия : С потерями
Бит/(Пиксели*Кадры) : 0.245
Размер потока : 628 Мбайт (90%)
Библиотека кодирования : XviD 73
Аудио
Идентификатор : 1
Формат : MPEG Audio
Версия формата : Version 1
Профиль формата : Layer 3
Идентификатор кодека : 55
Идентификатор кодека/Подсказка : MP3
Продолжительность : 1 ч. 12 м.
Вид битрейта : Постоянный
Битрейт : 128 Кбит/сек
Каналы : 2 канала
Частота : 44,1 КГц
Метод сжатия : С потерями
Размер потока : 66,2 Мбайт (9%)
Выравнивание : Разделение по промежуткам
Продолжительность промежутка : 40 мс. (1,00 видеокадр)
Время предзагрузки промежутка : 500 мс.
Библиотека кодирования : LAME3.99r
Настройки программы : -m s -V 4 -q 0 -lowpass 17 -b 128

Скриншоты



With ratio 0.05 you can not download torrents

Похожие темы
[Profile] [PM]
Display posts:    
Reply to topic

Current time is: 26-Nov 20:17

All times are UTC ± 0



You cannot post new topics in this forum
You cannot reply to topics in this forum
You cannot edit your posts in this forum
You cannot delete your posts in this forum
You cannot vote in polls in this forum
You cannot attach files in this forum
You can download files in this forum