Сборник мультфильмов - Союзмультфильм: В гостях у сказки [25 шт] (1955-1985) DVDRip-AVC

Reply to topic
 
Author Message

Dream ®

Gender: Male

Longevity: 3 years 5 months

Posts: 2164



Награды: None

Post 24-Aug-2015 17:15

[Quote]

Сборник мультфильмов-Союзмультфильм:В гостях у сказки
Страна: СССР
Производство: Союзмультфильм
Жанр: мультфильм, короткометражка
Год выпуска: 1955-1985
Продолжительность: 05:09:55 (25 мультфильмов)
Перевод: Не требуется
Cубтитры: нет
Оригинальная аудиодорожка: русский
Режиссер: Михаил Цехановский, Фёдор Хитрук, Борис Дежкин...
Описание: «Союзмультфильм» — крупнейшая в СССР студия мультипликационных фильмов, основанная в Москве 10 июня 1936 года. Студия создана 10 июня 1936 года с названием — «Союздетмультфильм» (из объединения мелких коллективов Мосфильма, Совкино и Межрабпромфильма), а с 20 августа 1937 года ее переименовали в «Союзмультфильм». Хотя приказ о создании студии был подписан начальником Главного Управления кинофотопромышленности, считается, что решение о создании студии мультипликационных фильмов исходило лично от И. В. Сталина. Для студии были выделены помещения закрытых Советской властью храмов: Николая Чудотворца в Новой слободе на Долгоруковской улице (в советское время — Каляевской улице), где находилось производство рисованных фильмов, и Спаса Преображения «что на Песках» в Спасопесковском переулке на Арбате, где располагалось «Творческое объединение кукольных фильмов». Храм на Арбате в 1991 году был возвращен Русской Православной Церкви, а храм на ул. Долгоруковской не возвращен РПЦ до сих пор, хотя решения о необходимости, в принципе, вернуть Церкви отнятые у неё храмы принимались уже более 15 лет назад. В настоящее время здание на Долгоруковской ул. дом 25 находится в федеральной собственности и закреплено на праве хозяйственного ведения за ФГУП "ТПО "Киностудия «Союзмультфильм».
Первый мультфильм, выпущенный студией, назывался «В Африке жарко» (1936 год). С 1937 года начали выпускаться цветные мультфильмы. На студии снято более 1500 мультфильмов.- [imdb]http://www.imdb.com/title/tt1364430[/imdb] -Источник: DVD9 R5
Качество видео: DVDRip-AVC
Формат видео: MKV
Видео: 712->768x576 (4:3), 25 fps, H264 ~ 1802 kbps avg, 0.176 bit/pixel
Аудио: 48 kHz, Dolby Digital AC3 2.0, 192 kbps

Список мультфильмов

01. Необыкновенный матч (1955) 0:19:52
02. Старые знакомые (1956) 0:20:19
03. Шайбу! Шайбу! (1964) 0:20:16
04. Приключения запятой и точки (1965) 0:15:15
05. Матч-реванш (1968) 0:19:37
06. Метеор на ринге (1970) 0:18:56
07. Симулянт (1972) 0:06:40
08. Кем быть (1973) 0:08:49
09. Мы с Джеком (1973) 0:09:39
10. Футбольные звезды (1974) 0:17:56
11. Проделкин в школе (1974) 0:09:40
12. Басни Михалкова (1975) 0:09:47
13. Лямзи-тыри-бонди - злой волшебник (1976) 0:09:43
14. Талант и поклонники (1978) 0:09:34
15. Честное слово (1978) 0:09:39
16. На задней парте (1978) 0:09:06
17. Робинзон Кузя (1978) 0:16:54
18. Жадный богач (1980) 0:04:21
19. Как старик корову продавал (1980) 0:05:49
20. На задней парте. 2-й выпуск (1980) 0:09:37
21. Приходи на каток (1981) 0:08:56
22. Волшебная лопата (1984) 0:08:09
23. Найда (1984) 0:15:33
24. По щучему велению (1984) 0:15:58
25. Ты меня не бойся (1985) 0:09:20

MediaInfo

Общее
Полное имя : Sbornik.multfilmov.1955-1985.DVDRip-AVC_[New-team]_by_AVP_Studio.mkv
Формат : Matroska
Версия формата : Version 2
Размер файла : 280 Мбайт
Продолжительность : 19 м.
Общий поток : 1996 Кбит/сек
Дата кодирования : UTC 2015-07-25 01:26:02
Программа кодирования : mkvmerge v6.1.0 ('Old Devil') built on Mar 4 2013 09:10:42
Библиотека кодирования : libebml v1.3.0 + libmatroska v1.4.0
Видео
Идентификатор : 1
Формат : AVC
Формат/Информация : Advanced Video Codec
Профиль формата : High@L4.1
Параметр CABAC формата : Да
Параметр ReFrames формата : 8 кадров
Идентификатор кодека : V_MPEG4/ISO/AVC
Продолжительность : 19 м.
Битрейт : 1802 Кбит/сек
Ширина : 712 пикселей
Высота : 576 пикселей
Соотношение сторон : 4:3
Режим частоты кадров : Постоянный
Частота кадров : 25,000 кадров/сек
Цветовое пространство : YUV
Субдискретизация насыщенности : 4:2:0
Битовая глубина : 8 бит
Тип развёртки : Прогрессивная
Бит/(Пиксели*Кадры) : 0.176
Размер потока : 248 Мбайт (88%)
Библиотека кодирования : x264 core 130 r2273 b3065e6
Настройки программы : cabac=1 / ref=8 / deblock=1:-2:-1 / analyse=0x3:0x113 / me=umh / subme=10 / psy=1 / psy_rd=1.00:0.05 / mixed_ref=1 / me_range=32 / chroma_me=1 / trellis=2 / 8x8dct=1 / cqm=0 / deadzone=21,11 / fast_pskip=0 / chroma_qp_offset=-3 / threads=6 / lookahead_threads=1 / sliced_threads=0 / nr=0 / decimate=0 / interlaced=0 / bluray_compat=0 / constrained_intra=0 / bframes=8 / b_pyramid=2 / b_adapt=2 / b_bias=0 / direct=3 / weightb=1 / open_gop=0 / weightp=2 / keyint=250 / keyint_min=25 / scenecut=40 / intra_refresh=0 / rc=2pass / mbtree=0 / bitrate=1802 / ratetol=1.0 / qcomp=0.60 / qpmin=0 / qpmax=69 / qpstep=4 / cplxblur=20.0 / qblur=0.5 / ip_ratio=1.40 / pb_ratio=1.30 / aq=1:1.00
Default : Да
Forced : Нет
Аудио
Идентификатор : 2
Формат : AC-3
Формат/Информация : Audio Coding 3
Расширение режима : CM (complete main)
Параметр Endianness формата : Big
Идентификатор кодека : A_AC3
Продолжительность : 19 м.
Вид битрейта : Постоянный
Битрейт : 192 Кбит/сек
Каналы : 2 канала
Расположение каналов : Front: L R
Частота : 48,0 КГц
Метод сжатия : С потерями
Размер потока : 27,0 Мбайт (10%)
Default : Да
Forced : Нет

Скриншоты

[Profile] [PM]

gum1129

Gender: Male

Longevity: 5 years 2 months

Posts: 5



Награды: None

Post 24-Aug-2015 17:51 (after 36 minutes)

[Quote]

Для внуков в самый раз! Благодарю!
[Profile] [PM]

Dream ®

Gender: Male

Longevity: 3 years 5 months

Posts: 2164



Награды: None

Post 24-Aug-2015 20:07 (after 2 hours 15 minutes)

[Quote]

Не за что!
[Profile] [PM]
Display posts:    
Reply to topic

Current time is: 30-Oct 13:25

All times are UTC ± 0



You cannot post new topics in this forum
You cannot reply to topics in this forum
You cannot edit your posts in this forum
You cannot delete your posts in this forum
You cannot vote in polls in this forum
You cannot attach files in this forum
You cannot download files in this forum