Три богатыря: Ход конем (2014) BDRip Лицензия

Reply to topic
 
Author Message

Dream ®

Gender: Male

Longevity: 3 years 5 months

Posts: 2164



Награды: None

Post 23-Aug-2015 13:00

[Quote]


Информация о фильме
Название: Три богатыря: Ход конем
Год выхода: 2014
Жанр: Мультфильм, сказка, приключения
Режиссер: Константин Феоктистов
О фильме: Придворный конь Гай Юлий Цезарь на свою беду подслушивает разговор бояр и узнает о заговоре против князя. Что же делать? Защитить-то князя некому! Богатыри далеко - ловят разбойника Потаню, Горыныч в отпуске, войско на учениях. Но если плохие парни собираются захватить мир, то кому-то же надо его спасти? Кто же он, настоящий герой, который придет на помощь? Конечно, конь Юлий! Настоящий стратег и «великий комбинатор». Он непременно всех спасет, а если не спасет, то хотя бы постарается. Главное, чтобы операция по спасению мира не обернулась полной катастрофой...
[kp]http://www.kinopoisk.ru/level/1/film/809087[/kp]
Страна: Россия
Студия: Анимационная студия Мельница, Кинокомпания CTB
Продолжительность: 01:14:42
Перевод: Не требуется (оригинальный)
Роли озвучивали: Сергей Маковецкий, Дмитрий Высоцкий, Дмитрий Нагиев, Олег Куликович, Валерий Соловьев, Дмитрий Быковский-Ромашов, Гоша Куценко, Наргиз Закирова, Анатолий Петров, Лия Медведева
Файл
Формат: avi
Качество: BDRip (Blu-Ray)
Видео: XviD, 656x352, 24fps, 1255kbps
Аудио: MPEG Layer 3, 2ch, 48000Hz, 128kbps

MediaInfo

General
Complete name : Tri.Bogatyra.3.2014.O.BDRip.700.MediaClub.CurHaJI.avi
Format : AVI
Format/Info : Audio Video Interleave
File size : 744 MiB
Duration : 1h 14mn
Overall bit rate : 1 392 Kbps
Movie name : Tri.Bogatyra.3.2014.O.BDRip.700.MediaClub.CurHaJI
Writing application : Lavf53.13.0
Writing library : VirtualDub build 35491/release
Video
ID : 0
Format : MPEG-4 Visual
Format profile : Advanced Simple@L5
Format settings, BVOP : 2
Format settings, QPel : No
Format settings, GMC : No warppoints
Format settings, Matrix : Custom
Codec ID : XVID
Codec ID/Hint : XviD
Duration : 1h 14mn
Bit rate : 1 255 Kbps
Width : 656 pixels
Height : 352 pixels
Display aspect ratio : 1.85:1
Frame rate : 24.000 fps
Color space : YUV
Chroma subsampling : 4:2:0
Bit depth : 8 bits
Scan type : Progressive
Compression mode : Lossy
Bits/(Pixel*Frame) : 0.226
Stream size : 671 MiB (90%)
Writing library : XviD 64
Audio
ID : 1
Format : MPEG Audio
Format version : Version 1
Format profile : Layer 3
Codec ID : 55
Codec ID/Hint : MP3
Duration : 1h 14mn
Bit rate mode : Constant
Bit rate : 128 Kbps
Channel(s) : 2 channels
Sampling rate : 48.0 KHz
Compression mode : Lossy
Stream size : 68.4 MiB (9%)
Alignment : Aligned on interleaves
Interleave, duration : 42 ms (1.00 video frame)
Interleave, preload duration : 504 ms
Writing library : LAME3.99.5

Скриншоты

[Profile] [PM]
Display posts:    
Reply to topic

Current time is: 30-Oct 12:58

All times are UTC ± 0



You cannot post new topics in this forum
You cannot reply to topics in this forum
You cannot edit your posts in this forum
You cannot delete your posts in this forum
You cannot vote in polls in this forum
You cannot attach files in this forum
You cannot download files in this forum