Мстители: Эра Альтрона / Avengers: Age of Ultron (2015) WEB-DLRip-AVC | Чистый звук

Reply to topic
DL-List and Torrent activity
Size:  2.67 GB   |    Registered:  5 years 2 months   |    Completed:  13 times

Seeder not seen: 4 years 8 months

 
   
 
 
 
Author Message

Dream ®

Gender: Male

Longevity: 3 years 4 months

Posts: 2164



Награды: None

Post 22-Aug-2015 18:43

[Quote]


Год выпуска: 2015
Страна: США
Жанр: фантастика, боевик, приключения
Продолжительность: 02:21:38
Перевод: Профессиональный (полное дублирование) [Чистый звук]
Cубтитры: нет
Режиссер: Джосс Уидон / Joss Whedon
В ролях: Роберт Дауни мл., Крис Хемсворт, Крис Эванс, Скарлетт Йоханссон, Марк Руффало, Джереми Реннер, Аарон Тейлор-Джонсон, Элизабет Олсен, Джеймс Спэйдер, Сэмюэл Л. Джексон
Описание: Человечество на грани уничтожения. На этот раз людям угрожает Альтрон — искусственный интеллект, ранее созданный для того, чтобы защищать Землю от любых угроз. Однако, главной угрозой он посчитал человечество. Международная организация Щ. И. Т. распалась, и теперь мир не способен справиться с таким мощным врагом, потому люди вновь обращаются за помощью к Величайшим Героям Земли — Мстителям. Однако Альтрон слишком силен, и есть большая вероятность, что даже им не удастся остановить начало надвигающейся Эры Альтрона, где нет места для людей…
Качество видео: WEB-DLRip-AVC
Формат видео: MKV
Видео: 1024х428, 23.976 fps, AVC, ~2500 kbps avg, 0.24 bit/pixel
Аудио: 48 kHz, AC3 Dolby Digital, 2/0 (L,R) ch, ~192 kbps

Скриншоты

МедиаИнфо

Мстители ЭраMstiteli.Еpa.Altpona.2015_AVC_WEB-DLRip_[scarabey.org].mkv
Format : Matroska
Format version : Version 4 / Version 2
File size : 2.67 GiB
Duration : 2h 21mn
Overall bit rate : 2 694 Kbps
Encoded date : UTC 2015-08-22 06:09:46
Writing application : mkvmerge v6.1.0 ('Old Devil') built on Mar 4 2013 09:10:42
Writing library : libebml v1.3.0 + libmatroska v1.4.0
Video
ID : 1
Format : AVC
Format/Info : Advanced Video Codec
Format profile : High@L4.1
Format settings, CABAC : Yes
Format settings, ReFrames : 8 frames
Codec ID : V_MPEG4/ISO/AVC
Duration : 2h 21mn
Bit rate : 2 500 Kbps
Width : 1 024 pixels
Height : 428 pixels
Display aspect ratio : 2.35:1
Original display aspect ratio : 2.35:1
Frame rate mode : Constant
Frame rate : 23.976 fps
Color space : YUV
Chroma subsampling : 4:2:0
Bit depth : 8 bits
Scan type : Progressive
Bits/(Pixel*Frame) : 0.238
Stream size : 2.42 GiB (91%)
Writing library : x264 core 138 r2356 a1d3d17
Encoding settings : cabac=1 / ref=8 / deblock=1:-3:-2 / analyse=0x3:0x113 / me=umh / subme=10 / psy=1 / psy_rd=1.00:0.05 / mixed_ref=1 / me_range=32 / chroma_me=1 / trellis=2 / 8x8dct=1 / cqm=0 / deadzone=21,11 / fast_pskip=0 / chroma_qp_offset=-3 / threads=12 / lookahead_threads=2 / sliced_threads=0 / nr=0 / decimate=0 / interlaced=0 / bluray_compat=0 / constrained_intra=0 / bframes=8 / b_pyramid=2 / b_adapt=2 / b_bias=0 / direct=3 / weightb=1 / open_gop=0 / weightp=2 / keyint=240 / keyint_min=24 / scenecut=40 / intra_refresh=0 / rc_lookahead=40 / rc=2pass / mbtree=1 / bitrate=2500 / ratetol=1.0 / qcomp=0.60 / qpmin=0 / qpmax=69 / qpstep=4 / cplxblur=20.0 / qblur=0.5 / ip_ratio=1.40 / aq=1:1.00
Default : Yes
Forced : No
Audio
ID : 2
Format : AC-3
Format/Info : Audio Coding 3
Mode extension : CM (complete main)
Format settings, Endianness : Big
Codec ID : A_AC3
Duration : 2h 21mn
Bit rate mode : Constant
Bit rate : 192 Kbps
Channel(s) : 2 channels
Channel positions : Front: L R
Sampling rate : 48.0 KHz
Bit depth : 16 bits
Compression mode : Lossy
Stream size : 195 MiB (7%)
Default : Yes
Forced : No

If your ratio falls below 0.3, you will not be able to download Torrents! More about the rating.

[dis-tracker.ru].t9704.torrent 
Torrent: Registered [ 2015-08-22 18:43 ] · E92ED97B33302D60C99EA081F40D507BF9980FCD

Download .torrent

Download

14 KB

Status: T temporary
Completed: 13 times
Size: 2.67 GB
terms.php
Похожие темы
[Profile] [PM]

Post 01-Aug-2017 12:39 (after 1 year 11 months)

Топик был перенесен из форума Фильмы 2015 в форум Фильмы 2015-2017
BLEID
 
Display posts:    
Reply to topic

Current time is: 22-Oct 21:11

All times are UTC ± 0



You cannot post new topics in this forum
You cannot reply to topics in this forum
You cannot edit your posts in this forum
You cannot delete your posts in this forum
You cannot vote in polls in this forum
You cannot attach files in this forum
You can download files in this forum