Зятек / Son in Law (1993) HDTVRip 720p | P, A, L1

Reply to topic
DL-List and Torrent activity
Size:  4.37 GB   |    Registered:  5 years 2 months   |    Completed:  0 times

Seeder not seen: 4 years 10 months

 
   
 
 
 
Author Message

Dream ®

Gender: Male

Longevity: 3 years 5 months

Posts: 2164



Награды: None

Post 18-Aug-2015 13:09

[Quote]


Информация о фильме
Название: Зятек
Оригинальное название: Son in Law
Год выхода: 1993
Жанр: драма, мелодрама, комедия
Режиссер: Стив Рэш
В ролях: Поли Шор, Карла Гуджино, Лейн Смит, Синди Пикетт, Мейсон Эдамс, Патрик Ренна, Деннис Бёркли, Тиффани Тиссен, Дэн Готье, Риа Павиа
Описание: Худший кошмар всякой тещи? Определенно, ее зять. Но даже в страшном сне мадам Уоррен не предполагала, насколько худо все обернется, пока впервые не увидела жениха своей дочери Ребекки.
Существо, прибывшее в дом Уорнеров на День Благодарения и представленное дочкой, как ее жених Кроул, мгновенно произвело на потенциальных родичей неизгладимое впечатление. Средоточие дурных манер, дикости, бестактности и полной непредсказуемости — Кроул продемонстрировал все эти лучшие черты своего характера в первые же минуты своего визита. А ведь это только начало! И невозможно представить, какой номер выкинет товарищ зять в следующую секунду!
[imdb]http://www.imdb.com/title/tt0108186[/imdb] [kp]http://www.kinopoisk.ru/film/15563[/kp]
Страна: США
Продолжительность: 01:35:12
Перевод #1: Профессиональный (Многоголосый, Закадровый) (Видеосервис)
Перевод #2: Профессиональный (Многоголосый, Закадровый) (1 Канал)
Перевод #3: Авторский (Одноголосый, Закадровый) (Вартан Дохалов)
Перевод #4: Авторский (Одноголосый, Закадровый) (Александр Кашкин)
Перевод #5: Любительский (Одноголосый, Закадровый) (Неизвестный)
Перевод #6: Английский (Оригинал)
Файл
Формат: MKV
Качество: HDTVRip 720p (Источник: Son in Law (1993) 1080i HDTV DD5.1 MPEG2-TrollHD)
Видео: 1280x704 (1.85:1), 23.976 fps, 5227 kbps, 0.242 bit/pixel
Аудио #1: AC-3, 2 ch, 192 kbps (Многоголосый Видеосервис)
Аудио #2: AC-3, 2 ch, 192 kbps (Многоголосый 1 Канал)
Аудио #3: AC-3, 2 ch, 192 kbps (Одноголосый Вартан Дохалов)
Аудио #4: AC-3, 2 ch, 192 kbps (Одноголосый Александр Кашкин)
Аудио #5: AC-3, 2 ch, 192 kbps (Одноголосый Неизвестный)
Аудио #6: AC-3, 6 ch, 384 kbps (Английский Оригинал)
Субтитры: Русские (Полные), Английские (SDH)

Скриншот с названием фильма

Скриншоты


MediaInfo

General
Unique ID : 209071892442353327386333242027580586952 (0x9D49C82540E68AE98A00715E1A53FBC8)
Complete name : Son.in.Law.1993.HDTVRip.720p.mkv
Format : Matroska
Format version : Version 2
File size : 4.37 GiB
Duration : 1h 35mn
Overall bit rate : 6 571 Kbps
Encoded date : UTC 2014-10-18 12:16:53
Writing application : mkvmerge v5.6.0 ('Kenya Kane') built on May 27 2012 16:44:04
Writing library : libebml v1.2.3 + libmatroska v1.3.0
Video
ID : 1
Format : AVC
Format/Info : Advanced Video Codec
Format profile : High@L4.1
Format settings, CABAC : Yes
Format settings, ReFrames : 9 frames
Codec ID : V_MPEG4/ISO/AVC
Duration : 1h 35mn
Bit rate : 5 227 Kbps
Width : 1 280 pixels
Height : 704 pixels
Display aspect ratio : 1.85:1
Original display aspect ratio : 1.85:1
Frame rate mode : Constant
Frame rate : 23.976 fps
Color space : YUV
Chroma subsampling : 4:2:0
Bit depth : 8 bits
Scan type : Progressive
Bits/(Pixel*Frame) : 0.242
Stream size : 3.39 GiB (78%)
Title : Зятек / Son in Law (1993) (HDTV 720p)
Writing library : x264 core 142 r2431 ac76440
Encoding settings : cabac=1 / ref=9 / deblock=1:-3:-3 / analyse=0x3:0x113 / me=umh / subme=11 / psy=1 / psy_rd=1.00:0.00 / mixed_ref=1 / me_range=32 / chroma_me=1 / trellis=2 / 8x8dct=1 / cqm=0 / deadzone=21,11 / fast_pskip=1 / chroma_qp_offset=-2 / threads=6 / lookahead_threads=1 / sliced_threads=0 / nr=0 / decimate=1 / interlaced=0 / bluray_compat=0 / constrained_intra=0 / bframes=8 / b_pyramid=2 / b_adapt=2 / b_bias=0 / direct=3 / weightb=1 / open_gop=0 / weightp=2 / keyint=240 / keyint_min=23 / scenecut=40 / intra_refresh=0 / rc=2pass / mbtree=0 / bitrate=5227 / ratetol=1.0 / qcomp=0.60 / qpmin=0 / qpmax=69 / qpstep=4 / cplxblur=20.0 / qblur=0.5 / ip_ratio=1.40 / pb_ratio=1.30 / aq=1:1.00
Language : English
Default : Yes
Forced : No
Color primaries : BT.709
Transfer characteristics : BT.709
Matrix coefficients : BT.709
Audio #1
ID : 2
Format : AC-3
Format/Info : Audio Coding 3
Mode extension : CM (complete main)
Format settings, Endianness : Big
Codec ID : A_AC3
Duration : 1h 35mn
Bit rate mode : Constant
Bit rate : 192 Kbps
Channel(s) : 2 channels
Channel positions : Front: L R
Sampling rate : 48.0 KHz
Bit depth : 16 bits
Compression mode : Lossy
Stream size : 131 MiB (3%)
Title : Многоголосый 2.0 (Видеосервис)
Language : Russian
Default : Yes
Forced : No
Audio #2
ID : 3
Format : AC-3
Format/Info : Audio Coding 3
Mode extension : CM (complete main)
Format settings, Endianness : Big
Codec ID : A_AC3
Duration : 1h 35mn
Bit rate mode : Constant
Bit rate : 192 Kbps
Channel(s) : 2 channels
Channel positions : Front: L R
Sampling rate : 48.0 KHz
Bit depth : 16 bits
Compression mode : Lossy
Stream size : 131 MiB (3%)
Title : Многоголосый 2.0 (1 Канал)
Language : Russian
Default : No
Forced : No
Audio #3
ID : 4
Format : AC-3
Format/Info : Audio Coding 3
Mode extension : CM (complete main)
Format settings, Endianness : Big
Codec ID : A_AC3
Duration : 1h 35mn
Bit rate mode : Constant
Bit rate : 192 Kbps
Channel(s) : 2 channels
Channel positions : Front: L R
Sampling rate : 48.0 KHz
Bit depth : 16 bits
Compression mode : Lossy
Stream size : 131 MiB (3%)
Title : Одноголосый 2.0 (Вартан Дохалов)
Language : Russian
Default : No
Forced : No
Audio #4
ID : 5
Format : AC-3
Format/Info : Audio Coding 3
Mode extension : CM (complete main)
Format settings, Endianness : Big
Codec ID : A_AC3
Duration : 1h 35mn
Bit rate mode : Constant
Bit rate : 192 Kbps
Channel(s) : 2 channels
Channel positions : Front: L R
Sampling rate : 48.0 KHz
Bit depth : 16 bits
Compression mode : Lossy
Stream size : 131 MiB (3%)
Title : Одноголосый 2.0 (Александр Кашкин)
Language : Russian
Default : No
Forced : No
Audio #5
ID : 6
Format : AC-3
Format/Info : Audio Coding 3
Mode extension : CM (complete main)
Format settings, Endianness : Big
Codec ID : A_AC3
Duration : 1h 35mn
Bit rate mode : Constant
Bit rate : 192 Kbps
Channel(s) : 2 channels
Channel positions : Front: L R
Sampling rate : 48.0 KHz
Bit depth : 16 bits
Compression mode : Lossy
Stream size : 131 MiB (3%)
Title : Одноголосый 2.0 (Неизвестный)
Language : Russian
Default : No
Forced : No
Audio #6
ID : 7
Format : AC-3
Format/Info : Audio Coding 3
Mode extension : CM (complete main)
Format settings, Endianness : Big
Codec ID : A_AC3
Duration : 1h 35mn
Bit rate mode : Constant
Bit rate : 384 Kbps
Channel(s) : 6 channels
Channel positions : Front: L C R, Side: L R, LFE
Sampling rate : 48.0 KHz
Bit depth : 16 bits
Compression mode : Lossy
Stream size : 261 MiB (6%)
Title : Английский 5.1 (Оригинал)
Language : English
Default : No
Forced : No
Text #1
ID : 8
Format : UTF-8
Codec ID : S_TEXT/UTF8
Codec ID/Info : UTF-8 Plain Text
Title : Русские (Полные)
Language : Russian
Default : No
Forced : No
Text #2
ID : 9
Format : UTF-8
Codec ID : S_TEXT/UTF8
Codec ID/Info : UTF-8 Plain Text
Title : Английские (SDH)
Language : English
Default : No
Forced : No

If your ratio falls below 0.3, you will not be able to download Torrents! More about the rating.

[dis-tracker.ru].t9650.torrent 
Torrent: Registered [ 2015-08-18 13:09 ] · 1545A4740239AEA6F8347B49CE101BDC30506F1D

Download .torrent

Download

23 KB

Status: checked
Completed: 0 times
Size: 4.37 GB
terms.php
Похожие темы
[Profile] [PM]
Display posts:    
Reply to topic

Current time is: 25-Oct 16:01

All times are UTC ± 0



You cannot post new topics in this forum
You cannot reply to topics in this forum
You cannot edit your posts in this forum
You cannot delete your posts in this forum
You cannot vote in polls in this forum
You cannot attach files in this forum
You can download files in this forum