Конек-Горбунок (1947) DVDRip-AVC

Reply to topic
DL-List and Torrent activity
Size:  745 MB   |    Registered:  5 years 2 months   |    Completed:  0 times

Seeder not seen: Never

 
   
 
 
 
Author Message

Dream ®

Gender: Male

Longevity: 3 years 5 months

Posts: 2164



Награды: None

Post 18-Aug-2015 11:30

[Quote]

Название:Конек-Горбунок
Страна: СССР
Производство: Союзмультфильм
Жанр: мультфильм, фэнтези, семейный
Год выпуска: 1947
Продолжительность: 00:55:06
Перевод: Не требуется
Cубтитры: нет
Оригинальная аудиодорожка: русский
Режиссер: Иван Иванов-Вано, Александра Снежко-Блоцкая, Виктор Громов
Роли озвучивали:
Ю. Черноволенко, Галина Новожилова, Анатолий Кубацкий, Алик Качанов, Георгий Милляр, Валентина Сперантова, Леонид Пирогов, В. Ястребова...
Описание:
Жил-был в Царь-столице грозный царь. Задумал он взять в жены Царь-девицу и послал за нею Иванушку, крестьянского сына. Вовек бы тому не добраться до красавицы, если б не волшебный помощник, сказочный Конек-Горбунок…- [imdb]http://www.imdb.com/title/tt0050604[/imdb] -Источник: DVD5 R5
Качество видео: DVDRip-AVC
Формат видео: MKV
Видео: 720->768x576 (4:3), 25 fps, H264 ~ 1696 kbps avg, 0.164 bit/pixel
Аудио: 48 kHz, Dolby Digital AC3 2.0, 192 kbps

Это интересно:

"3а горами, за лесами, за широкими морями..." — так начинается известная сказка "Конёк-Горбунок". Это — как заклинание, как пропуск в сокровищницу. Изумительное творение совершенно затмило автора, и сегодня далеко не каждый знает, что Пётр Павлович Ершов (1815–1869) был родом из Сибири, учился в Петербургском университете и «Горбунка» (1834) написал, будучи студентом. «Конёк-Горбунок» — произведение народное, почти слово в слово, по сообщению самого автора, взятое из уст рассказчиков, от которых он его слышал; Ершов только привёл его в более стройный вид и местами дополнил.
Мультипликационная версия создана старейшим российским режиссёром, народным артистом СССР Иваном Петровичем Ивановым-Вано в послевоенном 1947 году. С тех пор прошло более полувека. Но и сегодня этот первый российский полнометражный мультипликационный фильм покоряет зрителей неподдельной искренностью, юмором, оптимизмом. Увлекательно и задорно, красочно и непосредственно повествование об удивительных приключениях Иванушки-дурачка и его верного друга — волшебного Конька, перехитривших глупого и алчного царя.
Сразу же после появления на свет киносказка заняла особое место в истории отечественного и зарубежного кинематографа. Фильм был удостоен международных призов и наград:
III МКФ в Марианских Лазнях (ЧССР), 1948 — Почётный диплом;
IV МКФ в Каннах, 1950 — Специальная премия Жюри.

MediaInfo

Общее
Полное имя : Konek-Gorbunok.1947.DVDRip-AVC_[New-team]_by_AVP_Studio.mkv
Формат : Matroska
Версия формата : Version 2
Размер файла : 745 Мбайт
Продолжительность : 55 м.
Общий поток : 1890 Кбит/сек
Дата кодирования : UTC 2015-06-24 18:19:26
Программа кодирования : mkvmerge v6.1.0 ('Old Devil') built on Mar 4 2013 09:10:42
Библиотека кодирования : libebml v1.3.0 + libmatroska v1.4.0
Видео
Идентификатор : 1
Формат : AVC
Формат/Информация : Advanced Video Codec
Профиль формата : High@L4.1
Параметр CABAC формата : Да
Параметр ReFrames формата : 8 кадров
Идентификатор кодека : V_MPEG4/ISO/AVC
Продолжительность : 55 м.
Битрейт : 1696 Кбит/сек
Ширина : 720 пикселей
Высота : 576 пикселей
Соотношение сторон : 4:3
Режим частоты кадров : Постоянный
Частота кадров : 25,000 кадров/сек
Стандарт вещания : PAL
Цветовое пространство : YUV
Субдискретизация насыщенности : 4:2:0
Битовая глубина : 8 бит
Тип развёртки : Прогрессивная
Бит/(Пиксели*Кадры) : 0.164
Размер потока : 654 Мбайт (88%)
Библиотека кодирования : x264 core 138 r2356 a1d3d17
Настройки программы : cabac=1 / ref=8 / deblock=1:-2:-1 / analyse=0x3:0x113 / me=umh / subme=10 / psy=1 / psy_rd=1.00:0.05 / mixed_ref=1 / me_range=32 / chroma_me=1 / trellis=2 / 8x8dct=1 / cqm=0 / deadzone=21,11 / fast_pskip=0 / chroma_qp_offset=-3 / threads=6 / lookahead_threads=1 / sliced_threads=0 / nr=0 / decimate=0 / interlaced=0 / bluray_compat=0 / constrained_intra=0 / bframes=8 / b_pyramid=2 / b_adapt=2 / b_bias=0 / direct=3 / weightb=1 / open_gop=0 / weightp=2 / keyint=250 / keyint_min=25 / scenecut=40 / intra_refresh=0 / rc=2pass / mbtree=0 / bitrate=1696 / ratetol=1.0 / qcomp=0.60 / qpmin=0 / qpmax=69 / qpstep=4 / cplxblur=20.0 / qblur=0.5 / ip_ratio=1.40 / pb_ratio=1.30 / aq=1:1.00
Default : Да
Forced : Нет
Аудио
Идентификатор : 2
Формат : AC-3
Формат/Информация : Audio Coding 3
Расширение режима : CM (complete main)
Параметр Endianness формата : Big
Идентификатор кодека : A_AC3
Продолжительность : 55 м.
Вид битрейта : Постоянный
Битрейт : 192 Кбит/сек
Каналы : 2 канала
Расположение каналов : Front: L R
Частота : 48,0 КГц
Битовая глубина : 16 бит
Метод сжатия : С потерями
Размер потока : 75,7 Мбайт (10%)
Default : Да
Forced : Нет

Скриншоты

With ratio 0.05 you can not download torrents

Похожие темы
[Profile] [PM]
Display posts:    
Reply to topic

Current time is: 28-Oct 20:33

All times are UTC ± 0



You cannot post new topics in this forum
You cannot reply to topics in this forum
You cannot edit your posts in this forum
You cannot delete your posts in this forum
You cannot vote in polls in this forum
You cannot attach files in this forum
You can download files in this forum