Спаситель / Redeemer (2014) BDRip 1080p

Reply to topic
DL-List and Torrent activity
Size:  7.91 GB   |    Registered:  5 years 2 months   |    Completed:  0 times

Seeder not seen: Never

 
   
 
 
 
Author Message

Dream ®

Gender: Male

Longevity: 3 years 5 months

Posts: 2164



Награды: None

Post 17-Aug-2015 08:38

[Quote]


Название: Спаситель
Оригинальное название: Redeemer
Год выхода: 2014
Жанр: Боевик, криминал
Режиссер: Эрнесто Диас Эспиноса
В ролях: Ноа Сеган, Марко Сарор, Лорето Аварена, Маурисио Диокарес, Борис Смирнов, Отилио Кастро
О фильме:
Бывший наёмный убийца Никки Пардо заключил сделку с Богом. Теперь каждый его день будет начинаться с того, что он держит пистолет у своего виска и спускает курок. За эти дни Пардо ни разу не умер, и он расценивает это как знамение того, что ему предначертано продолжать охоту за людьми, на которых он раньше работал.
[kp]http://www.kinopoisk.ru/film/817612[/kp]
Страна: Чили, США, Moral Brothers Entertainment, XYZ Films
Продолжительность: 01:29:57
Озвучено: Любительский одноголосый (Хихикающий доктор)
Перевод фильма: Enigma
Кодек: H.264
Качество: BDRip 1080p
Видео: MPEG-4 AVC, 9075 Кбит/с, 1920x1080, 23.976 кадр/с
Перевод: Русский (AC3, 6 ch, 448 Кбит/с), (DTS, 6 ch, 1510 Кбит/с), испанский (DTS, 6 ch, 755 Кбит/с), английский (AC3, 2 ch, 192 Кбит/с)
Субтитры: Английские

Инфо-файл

Полное имя : E:Redeemer.2014.x264.BDRip.1080p.NovaLan.mkv
Формат : Matroska
Версия формата : Version 4 / Version 2
Размер файла : 7,91 Гбайт
Продолжительность : 1 ч. 32 м.
Общий поток : 12,2 Мбит/сек
Название фильма : Redeemer 2014 - NovaLan
Дата кодирования : UTC 2015-08-16 16:43:31
Программа кодирования : mkvmerge v8.3.0 ('Over the Horizon') 64bit
Библиотека кодирования : libebml v1.3.1 + libmatroska v1.4.2
DURATION : 01:23:36.178000000
NUMBER_OF_FRAMES : 503
NUMBER_OF_BYTES : 12700
_STATISTICS_WRITING_APP : mkvmerge v8.3.0 ('Over the Horizon') 64bit
_STATISTICS_WRITING_DATE_UTC : 2015-08-16 16:43:31
_STATISTICS_TAGS : BPS DURATION NUMBER_OF_FRAMES NUMBER_OF_BYTES
Видео
Идентификатор : 1
Формат : AVC
Формат/Информация : Advanced Video Codec
Профиль формата : High@L4.1
Параметр CABAC формата : Да
Параметр ReFrames формата : 4 кадра
Идентификатор кодека : V_MPEG4/ISO/AVC
Продолжительность : 1 ч. 32 м.
Битрейт : 9075 Кбит/сек
Номинальный битрейт : 9678 Кбит/сек
Ширина : 1920 пикселей
Высота : 1080 пикселей
Соотношение сторон : 16:9
Частота кадров : 23,976 кадра/сек
Цветовое пространство : YUV
Субдискретизация насыщенности : 4:2:0
Битовая глубина : 8 бит
Тип развёртки : Прогрессивная
Бит/(Пиксели*Кадры) : 0.183
Размер потока : 5,87 Гбайт (74%)
Заголовок : Sergei7721
Библиотека кодирования : x264 core 146 r2538 121396c
Настройки программы : cabac=1 / ref=4 / deblock=1:-1:-1 / analyse=0x3:0x113 / me=umh / subme=11 / psy=1 / psy_rd=1.00:0.20 / mixed_ref=1 / me_range=24 / chroma_me=1 / trellis=2 / 8x8dct=1 / cqm=0 / deadzone=21,11 / fast_pskip=0 / chroma_qp_offset=-3 / threads=12 / lookahead_threads=1 / sliced_threads=0 / nr=0 / decimate=0 / interlaced=0 / bluray_compat=0 / constrained_intra=0 / bframes=6 / b_pyramid=2 / b_adapt=2 / b_bias=0 / direct=3 / weightb=1 / open_gop=0 / weightp=2 / keyint=240 / keyint_min=23 / scenecut=40 / intra_refresh=0 / rc_lookahead=40 / rc=2pass / mbtree=0 / bitrate=9678 / ratetol=1.0 / qcomp=0.60 / qpmin=0 / qpmax=69 / qpstep=4 / cplxblur=20.0 / qblur=0.5 / vbv_maxrate=50000 / vbv_bufsize=62500 / nal_hrd=none / filler=0 / ip_ratio=1.40 / pb_ratio=1.30 / aq=1:1.00
Default : Да
Forced : Нет
DURATION : 01:29:57.643000000
NUMBER_OF_FRAMES : 129414
NUMBER_OF_BYTES : 6520802194
_STATISTICS_WRITING_APP : mkvmerge v8.3.0 ('Over the Horizon') 64bit
_STATISTICS_WRITING_DATE_UTC : 2015-08-16 16:43:31
_STATISTICS_TAGS : BPS DURATION NUMBER_OF_FRAMES NUMBER_OF_BYTES
Аудио #1
Идентификатор : 2
Формат : AC-3
Формат/Информация : Audio Coding 3
Расширение режима : CM (complete main)
Параметр Endianness формата : Big
Идентификатор кодека : A_AC3
Продолжительность : 1 ч. 32 м.
Вид битрейта : Постоянный
Битрейт : 448 Кбит/сек
Каналы : 6 каналов
Расположение каналов : Front: L C R, Side: L R, LFE
Частота : 48,0 КГц
Битовая глубина : 16 бит
Метод сжатия : С потерями
Размер потока : 297 Мбайт (4%)
Язык : Russian
Default : Да
Forced : Нет
Аудио #2
Идентификатор : 3
Формат : DTS
Формат/Информация : Digital Theater Systems
Идентификатор кодека : A_DTS
Продолжительность : 1 ч. 32 м.
Вид битрейта : Постоянный
Битрейт : 1510 Кбит/сек
Каналы : 6 каналов
Расположение каналов : Front: L C R, Side: L R, LFE
Частота : 48,0 КГц
Битовая глубина : 16 бит
Метод сжатия : С потерями
Размер потока : 1001 Мбайт (12%)
Язык : Russian
Default : Нет
Forced : Нет
Аудио #3
Идентификатор : 4
Формат : DTS
Формат/Информация : Digital Theater Systems
Идентификатор кодека : A_DTS
Продолжительность : 1 ч. 32 м.
Вид битрейта : Постоянный
Битрейт : 755 Кбит/сек
Каналы : 6 каналов
Расположение каналов : Front: L C R, Side: L R, LFE
Частота : 48,0 КГц
Битовая глубина : 24 бит
Метод сжатия : С потерями
Размер потока : 500 Мбайт (6%)
Язык : Несколько языков
Default : Нет
Forced : Нет
Аудио #4
Идентификатор : 5
Формат : AC-3
Формат/Информация : Audio Coding 3
Расширение режима : CM (complete main)
Параметр Endianness формата : Big
Идентификатор кодека : A_AC3
Продолжительность : 1 ч. 32 м.
Вид битрейта : Постоянный
Битрейт : 192 Кбит/сек
Каналы : 2 канала
Расположение каналов : Front: L R
Частота : 48,0 КГц
Битовая глубина : 16 бит
Метод сжатия : С потерями
Размер потока : 127 Мбайт (2%)
Язык : English
Default : Нет
Forced : Нет
Текст #1
Идентификатор : 6
Формат : UTF-8
Идентификатор кодека : S_TEXT/UTF8
Идентификатор кодека/Информация : UTF-8 Plain Text
Язык : English
Default : Нет
Forced : Нет
Текст #2
Идентификатор : 7
Формат : UTF-8
Идентификатор кодека : S_TEXT/UTF8
Идентификатор кодека/Информация : UTF-8 Plain Text
Язык : English
Default : Нет
Forced : Нет
Меню
00:00:00.000 : en:00:00:00.000
00:03:51.314 : en:00:03:51.314
00:06:15.541 : en:00:06:15.541
00:11:07.583 : en:00:11:07.583
00:14:32.788 : en:00:14:32.788
00:19:08.814 : en:00:19:08.814
00:22:27.179 : en:00:22:27.179
00:25:05.212 : en:00:25:05.212
00:30:21.653 : en:00:30:21.653
00:36:00.783 : en:00:36:00.783
00:41:57.473 : en:00:41:57.473
00:45:43.282 : en:00:45:43.282
00:51:33.423 : en:00:51:33.423
00:56:43.441 : en:00:56:43.441
01:00:58.029 : en:01:00:58.029
01:03:10.286 : en:01:03:10.286
01:07:50.149 : en:01:07:50.149
01:11:32.955 : en:01:11:32.955
01:14:13.532 : en:01:14:13.532
01:18:03.762 : en:01:18:03.762
01:25:01.513 : en:01:25:01.513
01:29:57.141 : en:01:29:57.141

Скриншоты

With ratio 0.06 you can not download torrents

Похожие темы
[Profile] [PM]
Display posts:    
Reply to topic

Current time is: 27-Oct 20:02

All times are UTC ± 0



You cannot post new topics in this forum
You cannot reply to topics in this forum
You cannot edit your posts in this forum
You cannot delete your posts in this forum
You cannot vote in polls in this forum
You cannot attach files in this forum
You can download files in this forum