Золушка / Cinderella (Кеннет Брана / Kennet Brana) [2015, США, Великобритания, Фэнтези, драма, мелодрама, семейный, BDRip-AVC] Dub + Sub Rus,Eng + Original Eng

Reply to topic
 
Author Message

IVAN@190282 ®

Gender: Male

Longevity: 5 years 3 months

Posts: 408

Location: Иваново



Награды: 3 (Подробнее)

Активный релизер (200 релизов) (Количество: 1) Активный релизер (250 релизов) (Количество: 1) Активный релизер (300 релизов) (Количество: 1)

Post 16-Aug-2015 22:04

[Quote]

ЗолушкаCinderella«Midnight is just the beginning.»

Страна: США, Великобритания
Жанр: Фэнтези, драма, мелодрама, семейный
Год выпуска: 2015
Продолжительность: 01:45:22
Перевод: Профессиональный (дублированный) Blu-ray
Cубтитры: русские,английские
Оригинальная аудиодорожка: английский
Режиссер: Кеннет Брана / Kennet Brana
В ролях: Лили Джеймс, Кейт Бланшетт, Ричард Мэдден, Хелена Бонем Картер, Нонсо Анози, Стеллан Скарсгард, Софи МакШера, Холлидей Грейнджер, Дерек Джекоби, Бен Чаплин
Описание:
Отец молодой девушки по имени Элла, овдовев, женится во второй раз, и вскоре Элла оказывается один на один с жадными и завистливыми новыми родственницами – мачехой Леди Тремэйн и ее дочерьми - Анастасией и Дризеллой. Из хозяйки дома она превращается в служанку, вечно испачканную золой, за что и получает от своих сварливых сводных сестриц прозвище – Золушка. Несмотря на злоключения, выпавшие на ее долю, Золушка не отчаивается, ведь даже в самые тяжелые моменты находится что-то, что помогает ей думать о хорошем: например, случайная встреча на лесной тропинке с прекрасным юношей. Элла даже не предполагает, что встретилась с самим принцем, и что вскоре Фея-крестная навсегда поменяет её жизнь к лучшему.
Доп. информация:
Релиз группы:
Качество видео: BDRip-AVC | Золушка / Cinderella(2015) lBlu-ray NORDiC 1080p AVC DD5.1| HD club
Формат видео: MKV
Видео: 1132x474 (2:40:1), 23,976 fps, 3040 Кbps, 0.236 bit/pixe
Аудио: 48 kHz, AC3 Dolby Digital, 3/2 (L,C,R,l,r) + LFE ch, ~448.00 kbps avg DUB
Аудио 2: 48 kHz, AC3 Dolby Digital, 3/2 (L,C,R,l,r) + LFE ch, ~448.00 kbps avg ENG
Формат субтитров: softsub (SRT)
Доп. информация о субтитрах: отключаемые

MediaInfo

Общее
Уникальный идентификатор : 217923455545843818020236963824481173847 (0xA3F287E6929395DA9A3326C308E18157)
Полное имя : E:\Мои рипы\Золушка\Cinderella by_IVAN@190282.mkv
Формат : Matroska
Версия формата : Version 4 / Version 2
Размер файла : 2,96 Гбайт
Продолжительность : 1 ч. 45 м.
Общий поток : 4016 Кбит/сек
Дата кодирования : UTC 2015-08-15 23:01:27
Программа кодирования : mkvmerge v8.2.0 ('World of Adventure') 64bit
Библиотека кодирования : libebml v1.3.1 + libmatroska v1.4.2
Attachements : 230050.jpg
DURATION : 01:44:40.691000000
NUMBER_OF_FRAMES : 1737
NUMBER_OF_BYTES : 50064
_STATISTICS_WRITING_APP : mkvmerge v8.2.0 ('World of Adventure') 64bit
_STATISTICS_WRITING_DATE_UTC : 2015-08-15 23:01:27
_STATISTICS_TAGS : BPS DURATION NUMBER_OF_FRAMES NUMBER_OF_BYTES
Видео
Идентификатор : 1
Формат : AVC
Формат/Информация : Advanced Video Codec
Профиль формата : High@L4.1
Параметр CABAC формата : Да
Параметр ReFrames формата : 12 кадров
Идентификатор кодека : V_MPEG4/ISO/AVC
Продолжительность : 1 ч. 45 м.
Битрейт : 3040 Кбит/сек
Ширина : 1132 пикселя
Высота : 474 пикселя
Соотношение сторон : 2,40:1
Режим частоты кадров : Постоянный
Частота кадров : 23,976 кадра/сек
Цветовое пространство : YUV
Субдискретизация насыщенности : 4:2:0
Битовая глубина : 8 бит
Тип развёртки : Прогрессивная
Бит/(Пиксели*Кадры) : 0.236
Размер потока : 2,24 Гбайт (76%)
Заголовок : Cinderella by_IVAN@190282
Библиотека кодирования : x264 core 148 r2579kMod 73ae2d1
Настройки программы : cabac=1 / ref=12 / deblock=1:-3:-3 / analyse=0x3:0x133 / me=umh / subme=11 / psy=1 / fade_compensate=0.00 / psy_rd=1.00:0.05 / mixed_ref=1 / me_range=48 / chroma_me=1 / trellis=2 / 8x8dct=1 / cqm=0 / deadzone=21,11 / fast_pskip=0 / chroma_qp_offset=-3 / threads=6 / lookahead_threads=6 / sliced_threads=0 / nr=0 / decimate=1 / interlaced=0 / bluray_compat=0 / constrained_intra=0 / fgo=0 / bframes=16 / b_pyramid=2 / b_adapt=2 / b_bias=0 / direct=3 / weightb=1 / open_gop=0 / weightp=2 / keyint=240 / keyint_min=23 / scenecut=40 / intra_refresh=0 / rc_lookahead=60 / rc=crf / mbtree=0 / crf=17.6000 / qcomp=0.60 / qpmin=0 / qpmax=69 / qpstep=4 / vbv_maxrate=50000 / vbv_bufsize=62500 / crf_max=0.0 / nal_hrd=none / filler=0 / ip_ratio=1.40 / pb_ratio=1.30 / aq=2:1.10
Язык : English
Default : Да
Forced : Нет
Цветовой диапазон : Limited
Основные цвета : BT.709
Характеристики трансфера : BT.709
Коэффициенты матрицы : BT.709
DURATION : 01:45:22.024000000
NUMBER_OF_FRAMES : 151577
NUMBER_OF_BYTES : 2463571049
_STATISTICS_WRITING_APP : mkvmerge v8.2.0 ('World of Adventure') 64bit
_STATISTICS_WRITING_DATE_UTC : 2015-08-15 23:01:27
_STATISTICS_TAGS : BPS DURATION NUMBER_OF_FRAMES NUMBER_OF_BYTES
Аудио #1
Идентификатор : 2
Формат : AC-3
Формат/Информация : Audio Coding 3
Расширение режима : CM (complete main)
Параметр Endianness формата : Big
Идентификатор кодека : A_AC3
Продолжительность : 1 ч. 45 м.
Вид битрейта : Постоянный
Битрейт : 448 Кбит/сек
Каналы : 6 каналов
Расположение каналов : Front: L C R, Side: L R, LFE
Частота : 48,0 КГц
Метод сжатия : С потерями
Размер потока : 338 Мбайт (11%)
Заголовок : Dub
Язык : Russian
Default : Да
Forced : Нет
Аудио #2
Идентификатор : 3
Формат : AC-3
Формат/Информация : Audio Coding 3
Расширение режима : CM (complete main)
Параметр Endianness формата : Big
Идентификатор кодека : A_AC3
Продолжительность : 1 ч. 45 м.
Вид битрейта : Постоянный
Битрейт : 448 Кбит/сек
Каналы : 6 каналов
Расположение каналов : Front: L C R, Side: L R, LFE
Частота : 48,0 КГц
Метод сжатия : С потерями
Размер потока : 338 Мбайт (11%)
Заголовок : Eng
Язык : English
Default : Нет
Forced : Нет
Текст #1
Идентификатор : 4
Формат : UTF-8
Идентификатор кодека : S_TEXT/UTF8
Идентификатор кодека/Информация : UTF-8 Plain Text
Заголовок : Rus
Язык : Russian
Default : Нет
Forced : Нет
Текст #2
Идентификатор : 5
Формат : UTF-8
Идентификатор кодека : S_TEXT/UTF8
Идентификатор кодека/Информация : UTF-8 Plain Text
Заголовок : Eng
Язык : English
Default : Нет
Forced : Нет
Меню
00:00:00.000 : en:Chapter 1
00:07:33.411 : en:Chapter 2
00:12:00.302 : en:Chapter 3
00:12:59.445 : en:Chapter 4
00:15:55.370 : en:Chapter 5
00:20:56.922 : en:Chapter 6
00:23:15.434 : en:Chapter 7
00:25:52.675 : en:Chapter 8
00:29:59.255 : en:Chapter 9
00:38:14.041 : en:Chapter 10
00:46:43.842 : en:Chapter 11
00:49:46.315 : en:Chapter 12
00:53:19.528 : en:Chapter 13
00:55:10.222 : en:Chapter 14
00:58:07.858 : en:Chapter 15
01:08:42.326 : en:Chapter 16
01:12:22.337 : en:Chapter 17
01:15:45.707 : en:Chapter 18
01:19:10.162 : en:Chapter 19
01:22:46.836 : en:Chapter 20
01:25:09.686 : en:Chapter 21
01:28:07.738 : en:Chapter 22
01:31:15.552 : en:Chapter 23
01:36:02.756 : en:Chapter 24
01:37:35.890 : en:Chapter 25
01:40:35.404 : en:Chapter 26

x264 log

x264 [info]: frame I:1171 Avg QP:16.04 size: 90848 PSNR Mean Y:46.70 U:49.59 V:50.23 Avg:47.50 Global:46.71
x264 [info]: frame P:35234 Avg QP:18.14 size: 32733 PSNR Mean Y:45.02 U:47.99 V:48.89 Avg:45.86 Global:44.78
x264 [info]: frame B:115172 Avg QP:20.57 size: 10453 PSNR Mean Y:44.33 U:47.77 V:48.92 Avg:45.27 Global:44.17
x264 [info]: consecutive B-frames: 3.6% 3.9% 8.3% 21.1% 18.7% 28.9% 7.2% 2.9% 2.3% 1.1% 0.7% 0.3% 0.3% 0.5% 0.1% 0.0% 0.1%
x264 [total]: encoded 151577 frames, 7.03 fps, 3117.45 kb/s, duration 5:59:21.83

Знаете ли Вы что

• Фильм снимался в павильонах английской студии Pinewood Studios и на различных натурных площадках в Англии.
• На создание платья для Феи-Крёстной у художницы по костюмам Сэнди Пауэлл ушло:
120 метров ткани;
400 светодиодов;
тысячи кристаллов Swarovski.
Ширина платья составила почти 120 сантиметров.
• Первоначально режиссером фильма был назначен Марк Романек, но он выбыл из проекта в связи с творческими разногласиями.
• Главная роль предлагалась Эмме Уотсон, но она отказалась.
• На роль Золушки рассматривались Сирша Ронан, Алисия Викандер, Имоджен Путс и Габриэлла Уайлд.
• На пошив платья Золушки ушло более 240 метров ткани и 10 000 кристаллов Swarovski, а также было сделано более 4800 метров стежков. Для съемок фильма было изготовлено 9 абсолютно одинаковых платьев.
• При работе над замком и бальной залой Данте Ферретти использовал различные архитектурные стили из разных эпох и локаций, по большей части – элементы стилей европейской архитектуры XVI, XVII и XVIII веков. Зал получился огромным – 45 метров в длину и 32 метра в ширину. Он занял целиком весь седьмой павильон студии Pinewood. Интерьер был роскошным:
мраморные полы;
массивная лестница;
шторы, на пошив которых ушло более чем 1800 метров ткани;
17 огромных люстр, изготовленных на заказ в Италии;
более 3600 метров бирюзового бархата для обивки стен;
более 16 000 искусственных цветов из шёлка,
а также 5000 свечей, каждая из которых была изготовлена вручную.
• В фильме сестры Анастасия и Дризелла всегда одеты в одинаковые по фасону, но разные по цвету платья, так же как и в одноименном анимационном фильме Disney.
• Золушка читает вслух сказку, написанную бурундучком Пипом — героем диснеевского фильма «Зачарованная» (2007), в финале которого Пип презентует свою книгу.

Скриншот c названием фильма

Скриншоты


Убедительная просьба пожалуйста кто скачал не бросайте раздачу!!!
[Profile] [PM]
Display posts:    
Reply to topic

Current time is: 30-Oct 13:35

All times are UTC ± 0



You cannot post new topics in this forum
You cannot reply to topics in this forum
You cannot edit your posts in this forum
You cannot delete your posts in this forum
You cannot vote in polls in this forum
You cannot attach files in this forum
You cannot download files in this forum