Дивергент, глава 2: Инсургент / Insurgent (2015) BDRip 3D [H.264/1080p] [Вертикальная анаморфная стереопара]

Reply to topic
DL-List and Torrent activity
Size:  9.08 GB   |    Registered:  5 years 3 months   |    Completed:  2 times

Seeder not seen: 4 years 10 months

 
   
 
 
 
Author Message

Dream ®

Gender: Male

Longevity: 3 years 6 months

Posts: 2164



Награды: None

Post 16-Aug-2015 13:23

[Quote]

Дивергент, глава 2: Инсургент / Insurgent (2015) BDRip 3D [H.264/1080p] [Half OverUnder / Вертикальная анаморфная стереопара]«В этом мире пора что-то менять»

Производство: США / Mandeville Films, NeoReel, Red Wagon Productions
Жанр: фантастика, триллер, приключения
Режиссер: Роберт Швентке
Продюсер: Люси Фишер, Пуйа Шахбазян, Дуглас Уик
Актеры: Шэйлин Вудли, Тео Джеймс, Кейт Уинслет, Джай Кортни, Энсел Элгорт, Майлз Теллер, Зои Кравиц, Мекхай Файфер, Наоми Уоттс, Октавия Спенсер, Рэй Стивенсон, Тони Голдуин, Эшли Джадд, Мэгги Кью, Сьюки Уотерхаус, Эмджей Энтони, Дэниэл Дэ Ким, Кейнан Лонсдейл, Джонни Уэстон, Синтия Баррет
Описание:
В новой главе антиутопии об обществе, где все расставлено по полочкам, а любая индивидуальность подлежит искоренению, Трис должна найти способ борьбы со страшной системой, уничтожающей ее близких. Кто из них на очереди? Она узнает все больше страшных подробностей, стоящих за кажущимся порядком, и уже не может не видеть, что в ее мире пора что-то менять. Но главное в этой борьбе — справиться с расколом, который враг порождает в ее собственной душе.

Рейтинг MPAA: - детям до 13 лет просмотр не желателен
Дата мировой премьеры: 11 марта 2015
Дата российской премьеры: 19 марта 2015, «Централ Партнершип» 3D
Продолжительность: 01:59:00
Качество: BDRip 3D (H.264/1080p)
Перевод: Дублированный (Лицензия)
Язык субтитров: Русский, английский
Вид субтитров: внешние, отключаемые
Видео: MPEG-4 AVC/H.264, 9430 Кбит/с, 1920x1080, 23.976 кадр/с
Аудио: Русский - 48,0 КГц, AC3, 6 ch, 640 Кбит/с
Аудио: Английский - 48,0 КГц, AC3, 6 ch, 640 Кбит/с

MediaInfo

General
Unique ID                                : 209576038623723287134836881709064523277 (0x9DAAE078A9586A6C9AF08104FA880E0D)
Complete name                            : Insurgent 2015 3D-halfOU/Insurgent 2015 3D-halfOU.mkv
Format                                   : Matroska
Format version                           : Version 2
File size                                : 9.08 GiB
Duration                                 : 1h 58mn
Overall bit rate                         : 10.9 Mbps
Movie name                               : Insurgent.2015.x264.BDRip.1080p.Rus.Eng
Encoded date                             : UTC 2015-08-13 17:11:28
Writing application                      : mkvmerge v7.9.0 ('Birds') 64bit
Writing library                          : libebml v1.3.1 + libmatroska v1.4.2
Video
ID                                       : 1
Format                                   : AVC
Format/Info                              : Advanced Video Codec
Format profile                           : [url=mailto:High@L4.1]High@L4.1[/url]
Format settings, CABAC                   : Yes
Format settings, ReFrames                : 4 frames
Codec ID                                 : V_MPEG4/ISO/AVC
Duration                                 : 1h 58mn
Bit rate                                 : 9 430 Kbps
Width                                    : 1 920 pixels
Height                                   : 1 080 pixels
Display aspect ratio                     : 16:9
Frame rate mode                          : Constant
Frame rate                               : 23.976 fps
Color space                              : YUV
Chroma subsampling                       : 4:2:0
Bit depth                                : 8 bits
Scan type                                : Progressive
Bits/(Pixel*Frame)                       : 0.190
Stream size                              : 7.84 GiB (86%)
Title                                    : BDRip by Ash61
Writing library                          : x264 core 138 r2358 9e941d1
Encoding settings                        : cabac=1 / ref=4 / deblock=1:-3:-3 / analyse=0x3:0x113 / me=umh / subme=10 / psy=1 / psy_rd=1.00:0.00 / mixed_ref=1 / me_range=32 / chroma_me=1 / trellis=2 / 8x8dct=1 / cqm=0 / deadzone=21,11 / fast_pskip=1 / chroma_qp_offset=-2 / threads=12 / lookahead_threads=3 / sliced_threads=0 / nr=0 / decimate=1 / interlaced=0 / bluray_compat=0 / constrained_intra=0 / bframes=12 / b_pyramid=2 / b_adapt=2 / b_bias=0 / direct=3 / weightb=1 / open_gop=0 / weightp=2 / keyint=250 / keyint_min=23 / scenecut=40 / intra_refresh=0 / rc_lookahead=60 / rc=crf / mbtree=1 / crf=15.0 / qcomp=0.70 / qpmin=10 / qpmax=51 / qpstep=4 / vbv_maxrate=40000 / vbv_bufsize=30000 / crf_max=0.0 / nal_hrd=none / frame-packing=4 / ip_ratio=1.40 / aq=1:0.70
Language                                 : English
Default                                  : Yes
Forced                                   : No
Audio #1
ID                                       : 2
Format                                   : AC-3
Format/Info                              : Audio Coding 3
Mode extension                           : CM (complete main)
Format settings, Endianness              : Big
Codec ID                                 : A_AC3
Duration                                 : 1h 58mn
Bit rate mode                            : Constant
Bit rate                                 : 640 Kbps
Channel count                            : 6 channels
Channel positions                        : Front: L C R, Side: L R, LFE
Sampling rate                            : 48.0 KHz
Bit depth                                : 16 bits
Compression mode                         : Lossy
Stream size                              : 545 MiB (6%)
Language                                 : Russian
Default                                  : Yes
Forced                                   : No
Audio #2
ID                                       : 3
Format                                   : AC-3
Format/Info                              : Audio Coding 3
Mode extension                           : CM (complete main)
Format settings, Endianness              : Big
Codec ID                                 : A_AC3
Duration                                 : 1h 58mn
Bit rate mode                            : Constant
Bit rate                                 : 640 Kbps
Channel count                            : 6 channels
Channel positions                        : Front: L C R, Side: L R, LFE
Sampling rate                            : 48.0 KHz
Bit depth                                : 16 bits
Compression mode                         : Lossy
Stream size                              : 545 MiB (6%)
Title                                    : Original
Language                                 : English
Default                                  : No
Forced                                   : No
Menu
00:00:00.000                             : :1
00:06:10.870                             : :2
00:13:34.980                             : :3
00:19:34.589                             : :4
00:26:39.013                             : :5
00:34:22.643                             : :6
00:41:13.429                             : :7
00:46:34.291                             : :8
00:53:09.686                             : :9
00:59:29.940                             : :10
01:05:59.246                             : :11
01:13:34.493                             : :12
01:22:57.514                             : :13
01:32:04.518                             : :14
01:39:08.942                             : :15
01:46:38.225                             : :16

Скриншоты

[dis-tracker.ru].t9619.torrent
 GOLD TORRENT! DOWNLOAD TRAFFIC DOES NOT CONSIDER! 
Torrent: Registered [ 2015-08-16 13:23 ] · 7F89E1C767720DBE210546CB52F4487753C9D9E9

Download .torrent

Download

92 KB

Status: checked
Completed: 2 times
Size: 9.08 GB
terms.php
Похожие темы
[Profile] [PM]
Display posts:    
Reply to topic

Current time is: 05-Dec 01:46

All times are UTC ± 0



You cannot post new topics in this forum
You cannot reply to topics in this forum
You cannot edit your posts in this forum
You cannot delete your posts in this forum
You cannot vote in polls in this forum
You cannot attach files in this forum
You can download files in this forum