Футбол. Чемпионат Англии 2014-15. Match of the Day. 02-й тур. Обзор матчей [15.08] (2015) HDTVRip 720p

Reply to topic
DL-List and Torrent activity
Size:  2.1 GB   |    Registered:  5 years 2 months   |    Completed:  1 time

Seeder not seen: 5 years 2 months

 
   
 
 
 
Author Message

Dream ®

Gender: Male

Longevity: 3 years 4 months

Posts: 2164



Награды: None

Post 16-Aug-2015 11:15

[Quote]

Match of the Day
Вид спорта: Футбол
Год выпуска: 15.08.2015
Язык комментариев: Английский
Описание: Выпуск "Match of the Day", посвященный прошедшим в субботу матчам 2-го тура АПЛ.
Автор рипа: FTP
Качество: HDTVRip
Формат видео: MKV
Видео: AVC, 1280*720, 25 fps, 3230 Kbps
Аудио: AC3, 6 ch, 48,0 KHz, 384 Kbps

Продолжительность

1:23:55

MI

Unique ID : 180856562826096220695612619944701283124 (0x880FB4FDDBC567E48792F8F03C394B34)
Complete name : F:APLMatch of the Day 2015-2016s.15-16 Week 02match.of.the.day.2015.08.15.720p.hdtv.x264-ftp.mkv
Format : Matroska
Format version : Version 2
File size : 2.10 GiB
Duration : 1h 23mn
Overall bit rate : 3 591 Kbps
Encoded date : UTC 2015-08-15 23:45:19
Writing application : mkvmerge v5.8.0 ('No Sleep / Pillow') built on Sep 2 2012 15:37:04
Writing library : libebml v1.2.3 + libmatroska v1.3.0
Video
ID : 1
Format : AVC
Format/Info : Advanced Video Codec
Format profile : High@L4.1
Format settings, CABAC : Yes
Format settings, ReFrames : 5 frames
Codec ID : V_MPEG4/ISO/AVC
Duration : 1h 23mn
Bit rate : 3 136 Kbps
Width : 1 280 pixels
Height : 720 pixels
Display aspect ratio : 16:9
Frame rate mode : Constant
Frame rate : 25.000 fps
Color space : YUV
Chroma subsampling : 4:2:0
Bit depth : 8 bits
Scan type : Progressive
Bits/(Pixel*Frame) : 0.136
Stream size : 1.84 GiB (87%)
Writing library : x264 core 148 r2579 73ae2d1
Encoding settings : cabac=1 / ref=5 / deblock=1:0:0 / analyse=0x3:0x113 / me=umh / subme=8 / psy=1 / psy_rd=1.00:0.00 / mixed_ref=1 / me_range=16 / chroma_me=1 / trellis=1 / 8x8dct=1 / cqm=0 / deadzone=21,11 / fast_pskip=1 / chroma_qp_offset=-2 / threads=12 / lookahead_threads=2 / sliced_threads=0 / nr=0 / decimate=1 / interlaced=0 / bluray_compat=0 / constrained_intra=0 / bframes=3 / b_pyramid=2 / b_adapt=2 / b_bias=0 / direct=3 / weightb=1 / open_gop=0 / weightp=2 / keyint=250 / keyint_min=25 / scenecut=40 / intra_refresh=0 / rc_lookahead=50 / rc=crf / mbtree=1 / crf=23.0 / qcomp=0.60 / qpmin=0 / qpmax=69 / qpstep=4 / ip_ratio=1.40 / aq=1:1.00
Default : Yes
Forced : No
Audio
ID : 2
Format : AC-3
Format/Info : Audio Coding 3
Mode extension : CM (complete main)
Format settings, Endianness : Big
Codec ID : A_AC3
Duration : 1h 23mn
Bit rate mode : Constant
Bit rate : 384 Kbps
Channel(s) : 6 channels
Channel positions : Front: L C R, Side: L R, LFE
Sampling rate : 48.0 KHz
Bit depth : 16 bits
Compression mode : Lossy
Stream size : 230 MiB (11%)
Title : English
Language : English
Default : Yes
Forced : No

Скриншоты

If your ratio falls below 0.3, you will not be able to download Torrents! More about the rating.

[dis-tracker.ru].t9617.torrent 
Torrent: Registered [ 2015-08-16 11:15 ] · 9349D17079341A7790761EA5EDD57EBD4B9DD936

Download .torrent

Download

11 KB

Status: checked
Completed: 1 times
Size: 2.1 GB
terms.php
Похожие темы
[Profile] [PM]
Display posts:    
Reply to topic

Current time is: 20-Oct 05:15

All times are UTC ± 0



You cannot post new topics in this forum
You cannot reply to topics in this forum
You cannot edit your posts in this forum
You cannot delete your posts in this forum
You cannot vote in polls in this forum
You cannot attach files in this forum
You can download files in this forum