Поездка в Америку / Coming to America (1988) ВDRip

Reply to topic
DL-List and Torrent activity
Size:  1.46 GB   |    Registered:  5 years 2 months   |    Completed:  0 times

Seeder not seen: 5 years

 
   
 
 
 
Author Message

Dream ®

Gender: Male

Longevity: 3 years 5 months

Posts: 2164



Награды: None

Post 14-Aug-2015 19:26

[Quote]

Название фильма:Поездка в Америку
Страна: США
Производство: Eddie Murphy Productions, Paramount Pictures
Жанр: драма, мелодрама, комедия
Год выпуска: 1988
Продолжительность: 01:56:47
Перевод: Профессиональный (Многоголосый, закадровый)
Оригинальная аудиодорожка: нет
Cубтитры: нет
Режиссер: Джон Лэндис / John Landis
В ролях:
Эдди Мёрфи, Арсенио Холл, Джеймс Эрл Джонс, Джон Эймос, Мэдж Синклер, Шэри Хидли, Пол Бейтс, Эрик Ла Салль, Фрэнки Фэйзон, Ванесса Белл Кэллоуэй...
Описание:
Наследный принц африканского государства Замунда Аким (Эдди Мерфи) хочет сам себе найти жену и едет для этого в Америку в компании своего верного друга и слуги Сэмми (Арсенио Холл). В Нью-Йорке принц выбирает самый шикарный по названию, но далеко не самый фешенебельный район «Куинс» (королевы). Поиски невесты заставили принца играть роль обычного работяги-парня и поступить работать в закусочную, в которой ему очень понравилась дочь хозяина. Девушка и не подозревает, кем в действительности является её скромный ухажер-козопас, что она уже потенциальная принцесса!…-Исходник: BDRemux 1080p
Тип релиза: BDRip
Контейнер: AVI
Видео: 720x400 (16:9), 23.976 fps, XviD ~ 1394 kbps avg, 0.202 bit/pixel
Аудио: 48 kHz, Dolby AC3 5.1, 384 kbps

MediaInfo

Общее
Полное имя : Poezdka.v.Ameriku.1988.BDRip_[Youtracker]_by_AVP Studio.avi
Формат : AVI
Формат/Информация : Audio Video Interleave
Размер файла : 1,46 Гбайт
Продолжительность : 1 ч. 56 м.
Общий поток : 1788 Кбит/сек
Программа кодирования : VirtualDubModRus 1.5.10.2 (build 2542/release)
Библиотека кодирования : VirtualDubMod build 2542/release
Видео
Идентификатор : 0
Формат : MPEG-4 Visual
Профиль формата : Advanced Simple@L5
Параметр BVOP формата : 1
Параметр QPel формата : Нет
Параметр GMC формата : Без точки перехода
Параметр матрицы формата : Выборочная
Идентификатор кодека : XVID
Идентификатор кодека/Подсказка : XviD
Продолжительность : 1 ч. 56 м.
Битрейт : 1394 Кбит/сек
Ширина : 720 пикселей
Высота : 400 пикселей
Соотношение сторон : 16:9
Частота кадров : 23,976 кадра/сек
Цветовое пространство : YUV
Субдискретизация насыщенности : 4:2:0
Битовая глубина : 8 бит
Тип развёртки : Прогрессивная
Метод сжатия : С потерями
Бит/(Пиксели*Кадры) : 0.202
Размер потока : 1,14 Гбайт (78%)
Библиотека кодирования : XviD 73
Аудио
Идентификатор : 1
Формат : AC-3
Формат/Информация : Audio Coding 3
Расширение режима : CM (complete main)
Идентификатор кодека : 2000
Продолжительность : 1 ч. 56 м.
Вид битрейта : Постоянный
Битрейт : 384 Кбит/сек
Каналы : 6 каналов
Расположение каналов : Front: L C R, Side: L R, LFE
Частота : 48,0 КГц
Битовая глубина : 16 бит
Метод сжатия : С потерями
Размер потока : 321 Мбайт (21%)
Выравнивание : Разделение по промежуткам
Продолжительность промежутка : 42 мс. (1,00 видеокадр)
Время предзагрузки промежутка : 500 мс

Скриншоты

Интересные факты

Основу для сценария фильма написал сатирик Арт Бухвальд. Однако, на киностудии «Paramount Pictures» отвергли его идею, заявив, что она малоинтересна. В результате, фильм сняли без ведома автора. И удивлённый сатирик увидел реализацию своего замысла только в кинотеатре. Из-за этого Бухвальд в 1990 году подал в суд на «Paramount Pictures». Процесс он выиграл: студию обязали выплатить ему 900 тысяч долларов. С тех пор киностудии взяли за правило включать в свои контракты оговорку, что оригинальные идеи сторонних авторов оплате не подлежат. Эта ссылка вошла в историю авторского права Америки как «закон Бухвальда».
В фильме есть эпизод, когда главные герои проходят рядом с двумя нищими. Принц отдаёт последние деньги этим нищим, которые оказываются братьями Рэндольфом и Мортимером Дюк, которых разорил герой Эдди Мерфи в фильме «Поменяться местами».

If your ratio falls below 0.3, you will not be able to download Torrents! More about the rating.

[dis-tracker.ru].t9579.torrent 
Torrent: Registered [ 2015-08-14 19:26 ] · 0289A362356A8B7FCD3A68C18380C4C3724201D3

Download .torrent

Download

16 KB

Status: checked
Completed: 0 times
Size: 1.46 GB
terms.php
Похожие темы
[Profile] [PM]
Display posts:    
Reply to topic

Current time is: 25-Oct 10:12

All times are UTC ± 0



You cannot post new topics in this forum
You cannot reply to topics in this forum
You cannot edit your posts in this forum
You cannot delete your posts in this forum
You cannot vote in polls in this forum
You cannot attach files in this forum
You can download files in this forum