Охотники за привидениями / Ghostbusters (1984) HDRip

Reply to topic
 
Author Message

Dream ®

Gender: Male

Longevity: 3 years 5 months

Posts: 2164



Награды: None

Post 14-Aug-2015 19:19

[Quote]

Охотники за привидениями / Ghostbusters- Год выпуска: 1984
Страна: США
Жанр: фантастика, фэнтези, комедия, приключения
Продолжительность: 01:45:08
Перевод: Профессиональный (дублированный)
Русские субтитры: нет
Режиссер: Айвен Райтман / Ivan Reitman
В ролях: Билл Мюррэй, Дэн Эйкройд, Сигурни Уивер, Харольд Рэмис, Рик Морэнис, Энни Поттс, Уильям Этертон, Эрни Хадсон, Дэвид Маргулис, Стивен Тэш
Описание: Охотники за привидениями (Ghostbusters) — совершенно оригинальная по задумке комедия. Сами "охотники" были придуманы комиком, актером, сценаристом и братом из "Братьев Блюз" — Дэном Эйкройдом, который всегда увлекался паранормальными явлениями. Дэн придумал оборудование для ловли призраков: заплечный ядерный реактор для протонного излучателя, стреляющего ярким извивающимся пучком (который, как лассо, хватал призраков), и ловушку с позитронной ямой (капкан, засасывающий схваченное создание). Охотников же и их экипировку Дэн взял с реально существующих охотников за привидениями в старой Англии - они ездили на черной машине "скорой помощи" и носили комбинезоны. Эйкройд также снимался в роли Рея - одного из охотников
[kp]http://www.kinopoisk.ru/film/2467[/kp]
Качество: HDRip - Исходник BDRip 1080p
Формат: AVI
Видео кодек: XviD
Аудио кодек: AC3
Видео: 720x304 (2.37:1), 23.976 fps, XviD build 73 ~1785 kbps avg, 0.34 bit/pixel
Аудио: 48 kHz, AC3 Dolby Digital, 2/0 (L,R) ch, ~192 kbps-

Скриншоты

MI

D:Мои рипыGhostbusters.1984.HDRip.dexter_lex.avi
General
Complete name : D:Мои рипыGhostbusters.1984.HDRip.dexter_lex.avi
Format : AVI
Format/Info : Audio Video Interleave
File size : 1.46 GiB
Duration : 1h 45mn
Overall bit rate : 1 987 Kbps
Writing application : VirtualDubMod 1.5.10.3 | www.virtualdub-fr.org || (build 2550/release)
Writing library : VirtualDubMod build 2550/release
Video #0
ID : 0
Format : MPEG-4 Visual
Format profile : Advanced Simple@L5
Format settings, BVOP : 1
Format settings, QPel : No
Format settings, GMC : No warppoints
Format settings, Matrix : Custom
Codec ID : XVID
Codec ID/Hint : XviD
Duration : 1h 45mn
Bit rate : 1 786 Kbps
Width : 720 pixels
Height : 304 pixels
Display aspect ratio : 2.35:1
Frame rate : 23.976 fps
Color space : YUV
Chroma subsampling : 4:2:0
Bit depth : 8 bits
Scan type : Progressive
Compression mode : Lossy
Bits/(Pixel*Frame) : 0.340
Stream size : 1.31 GiB (90%)
Writing library : XviD 73
Audio #1
ID : 1
Format : AC-3
Format/Info : Audio Coding 3
Mode extension : CM (complete main)
Codec ID : 2000
Duration : 1h 45mn
Bit rate mode : Constant
Bit rate : 192 Kbps
Channel(s) : 2 channels
Channel positions : Front: L R
Sampling rate : 48.0 KHz
Bit depth : 16 bits
Compression mode : Lossy
Stream size : 144 MiB (10%)
Alignment : Split accross interleaves
Interleave, duration : 42 ms (1.00 video frame)
Interleave, preload duration : 500 ms


Last edited by Dream on 2015-08-15 03:47; edited 1 time in total
[Profile] [PM]
Display posts:    
Reply to topic

Current time is: 30-Oct 03:40

All times are UTC ± 0



You cannot post new topics in this forum
You cannot reply to topics in this forum
You cannot edit your posts in this forum
You cannot delete your posts in this forum
You cannot vote in polls in this forum
You cannot attach files in this forum
You cannot download files in this forum