Смерть ей к лицу / Death Becomes Her (1992) BDRip

Reply to topic
DL-List and Torrent activity
Size:  1.46 GB   |    Registered:  5 years 3 months   |    Completed:  0 times

Seeder not seen: Never

 
   
 
 
 
Author Message

Dream ®

Gender: Male

Longevity: 3 years 5 months

Posts: 2164



Награды: None

Post 14-Aug-2015 19:06

[Quote]


Название: Смерть ей к лицу
Оригинальное название: Death Becomes Her
Год выпуска: 1992
Жанр: Комедия, фантастика
Выпущено: США, Universal Pictures
Режиссер: Роберт Земекис
В ролях: Мэрил Стрип, Голди Хоун, Брюс Уиллис, Изабелла Росселлини, Иэн Огилви, Адам Сторке, Нэнси Фиш, Алайна Рид Холл, Мишель Джонсон, Мэри Эллен Трейнор, Дебра Джо Рапп
О фильме: Интересно, а на что вы были бы готовы пойти, если бы лишились в очередной раз возможности выйти замуж по вине... лучшей подруги! И не важно, что в итоге мужчина сделал выбор, важно - что этому выбору способствовало! Но месть, как известно, блюдо которое подают холодным! Прошло время... и время пришло! Что за способ найдут бывшие подруги, чтобы наконец решить свой давний спор - кто с кем останется до тех пор, "пока смерть не разлучит нас"?
Качество: BDRip исходник (BD-Remux)
Видео: XviD, 1626 Кбит/с, 720x384
Аудио 1: Русский, AC3, 2 ch, 192 Кбит/с | (многоголосый) НТВ+
Аудио 2: Русский, AC3, 2 ch, 192 Кбит/с | (А. Михалев)
Продолжительность: 01:43:28
Перевод: Профессиональный (многоголосый), авторский

MediaInfo

General
Complete name : G:Death Becomes Her (1992) BDRip 1.46.avi
Format : AVI
Format/Info : Audio Video Interleave
File size : 1.46 GiB
Duration : 1h 43mn
Overall bit rate : 2 025 Kbps
Writing application : VirtualDubModRus 1.5.10.2 (build 2542/release)
Writing library : VirtualDubMod build 2542/release
Video
ID : 0
Format : MPEG-4 Visual
Format profile : Advanced Simple@L5
Format settings, BVOP : 2
Format settings, QPel : No
Format settings, GMC : No warppoints
Format settings, Matrix : Default (H.263)
Muxing mode : Packed bitstream
Codec ID : XVID
Codec ID/Hint : XviD
Duration : 1h 43mn
Bit rate : 1 627 Kbps
Width : 720 pixels
Height : 384 pixels
Display aspect ratio : 1.85:1
Frame rate : 23.976 fps
Color space : YUV
Chroma subsampling : 4:2:0
Bit depth : 8 bits
Scan type : Progressive
Compression mode : Lossy
Bits/(Pixel*Frame) : 0.245
Stream size : 1.18 GiB (80%)
Writing library : XviD 57
Audio #1
ID : 1
Format : AC-3
Format/Info : Audio Coding 3
Mode extension : CM (complete main)
Format settings, Endianness : Big
Codec ID : 2000
Duration : 1h 43mn
Bit rate mode : Constant
Bit rate : 192 Kbps
Channel(s) : 2 channels
Channel positions : Front: L R
Sampling rate : 48.0 KHz
Bit depth : 16 bits
Compression mode : Lossy
Stream size : 142 MiB (9%)
Alignment : Split accross interleaves
Interleave, duration : 42 ms (1.00 video frame)
Interleave, preload duration : 500 ms
Audio #2
ID : 2
Format : AC-3
Format/Info : Audio Coding 3
Mode extension : CM (complete main)
Format settings, Endianness : Big
Codec ID : 2000
Duration : 1h 43mn
Bit rate mode : Constant
Bit rate : 192 Kbps
Channel(s) : 2 channels
Channel positions : Front: L R
Sampling rate : 48.0 KHz
Bit depth : 16 bits
Compression mode : Lossy
Stream size : 142 MiB (9%)
Alignment : Split accross interleaves
Interleave, duration : 42 ms (1.00 video frame)
Interleave, preload duration : 500 ms

Скриншоты






With ratio 0.05 you can not download torrents

Похожие темы
[Profile] [PM]
Display posts:    
Reply to topic

Current time is: 24-Nov 15:47

All times are UTC ± 0



You cannot post new topics in this forum
You cannot reply to topics in this forum
You cannot edit your posts in this forum
You cannot delete your posts in this forum
You cannot vote in polls in this forum
You cannot attach files in this forum
You can download files in this forum