PQ-17: Катастрофа арктического конвоя / PQ17: An Arctic Convoy Disaster (2014) HDTV 720p

Reply to topic
DL-List and Torrent activity
Size:  1.5 GB   |    Registered:  5 years 2 months   |    Completed:  2 times
Seeders:  285  [  0 KB/s  ]   Leechers:  177  [  0 KB/s  ]   Show peers in full details
 
   
 
 
Author Message

Dream ®

Gender: Male

Longevity: 3 years 5 months

Posts: 2164



Награды: None

Post 14-Aug-2015 18:34

[Quote]


Название: PQ-17: Катастрофа арктического конвоя
Оригинальное название: PQ17: An Arctic Convoy Disaster
Год выхода: 2014
Жанр: документальный
Режиссер: Ричард Пирсон
О фильме: Джереми Кларксон рассказывает об арктических конвоях времён Второй мировой. Их миссия - доставить жизненно важные продукты и боеприпасы в сражающийся Советский Союз сквозь шторм и снующие повсюду подводные лодки. Посредством рассказов очевидцев, архивных видеоматериалов и даже личного опыта, Джереми раскроет историю смелости в невероятно тяжёлые моменты.
Страна: Великобритания
Продолжительность: 00:58:56
Перевод: Профессиональный (многоголосый закадровый) AlexFilm
Субтитры: русские, английские
[imdb]http://www.imdb.com/title/tt3415772[/imdb] [kp]http://www.kinopoisk.ru/film/926871[/kp]
Файл
Формат: MKV
Качество: HDTV 720p
Видео: 1280x720 (16:9), 25 fps, MPEG-4 AVC ~3200 Kbps
Аудио Rus: 48 kHz, AC3 Dolby Digital, 2/0 (L,R) ch, ~192.00 kbps
Аудио Eng: 48 kHz, AC3 Dolby Digital, 2/0 (L,R) ch, ~192.00 kbps

MediaInfo

Format : Matroska
Format version : Version 4 / Version 2
File size : 1.50 GiB
Duration : 58mn 56s
Overall bit rate : 3 651 Kbps
Movie name : PQ 17: An Arctic Convoy Disaster @ AlexFilm
Encoded date : UTC 2015-08-06 13:57:24
Writing application : mkvmerge v7.1.0 ('Good Love') 64bit built on Jul 27 2014 13:06:55
Writing library : libebml v1.3.0 + libmatroska v1.4.1
Video
ID : 1
Format : AVC
Format/Info : Advanced Video Codec
Format profile : High@L4.1
Format settings, CABAC : Yes
Format settings, ReFrames : 6 frames
Codec ID : V_MPEG4/ISO/AVC
Duration : 58mn 56s
Bit rate : 3 195 Kbps
Width : 1 280 pixels
Height : 720 pixels
Display aspect ratio : 16:9
Frame rate mode : Constant
Frame rate : 25.000 fps
Color space : YUV
Chroma subsampling : 4:2:0
Bit depth : 8 bits
Scan type : Progressive
Bits/(Pixel*Frame) : 0.139
Stream size : 1.32 GiB (87%)
Writing library : x264 core 140 r2377 1ca7bb9
Encoding settings : cabac=1 / ref=6 / deblock=1:0:0 / analyse=0x3:0x113 / me=umh / subme=9 / psy=1 / psy_rd=1.00:0.00 / mixed_ref=1 / me_range=24 / chroma_me=1 / trellis=1 / 8x8dct=1 / cqm=0 / deadzone=21,11 / fast_pskip=0 / chroma_qp_offset=-2 / threads=3 / lookahead_threads=1 / sliced_threads=0 / nr=0 / decimate=1 / interlaced=0 / bluray_compat=0 / constrained_intra=0 / bframes=3 / b_pyramid=2 / b_adapt=1 / b_bias=0 / direct=1 / weightb=1 / open_gop=0 / weightp=2 / keyint=250 / keyint_min=15 / scenecut=40 / intra_refresh=0 / rc_lookahead=40 / rc=crf / mbtree=1 / crf=19.0 / qcomp=0.60 / qpmin=0 / qpmax=69 / qpstep=4 / ip_ratio=1.40 / aq=1:1.00
Language : English
Default : Yes
Forced : No
Audio #1
ID : 2
Format : AC-3
Format/Info : Audio Coding 3
Mode extension : CM (complete main)
Format settings, Endianness : Big
Codec ID : A_AC3
Duration : 58mn 56s
Bit rate mode : Constant
Bit rate : 192 Kbps
Channel(s) : 2 channels
Channel positions : Front: L R
Sampling rate : 48.0 KHz
Bit depth : 16 bits
Compression mode : Lossy
Stream size : 81.0 MiB (5%)
Title : DD2.0 AlexFilm
Language : Russian
Default : Yes
Forced : No
Audio #2
ID : 3
Format : AC-3
Format/Info : Audio Coding 3
Mode extension : CM (complete main)
Format settings, Endianness : Big
Codec ID : A_AC3
Duration : 58mn 56s
Bit rate mode : Constant
Bit rate : 192 Kbps
Channel(s) : 2 channels
Channel positions : Front: L R
Sampling rate : 48.0 KHz
Bit depth : 16 bits
Compression mode : Lossy
Stream size : 81.0 MiB (5%)
Title : DD2.0 Original
Language : English
Default : No
Forced : No
Text #1
ID : 4
Format : UTF-8
Codec ID : S_TEXT/UTF8
Codec ID/Info : UTF-8 Plain Text
Language : Russian
Default : No
Forced : No
Text #2
ID : 5
Format : UTF-8
Codec ID : S_TEXT/UTF8
Codec ID/Info : UTF-8 Plain Text
Language : English
Default : No
Forced : No

Скриншоты

With ratio 0.06 you can not download torrents

Похожие темы
[Profile] [PM]
Display posts:    
Reply to topic

Current time is: 27-Oct 20:48

All times are UTC ± 0



You cannot post new topics in this forum
You cannot reply to topics in this forum
You cannot edit your posts in this forum
You cannot delete your posts in this forum
You cannot vote in polls in this forum
You cannot attach files in this forum
You can download files in this forum