6 способов умереть / 6 Ways to Sundown (2015) WEB-DL 720p

Reply to topic
 
Author Message

Dream ®

Gender: Male

Longevity: 3 years 5 months

Posts: 2164



Награды: None

Post 14-Aug-2015 16:04

[Quote]

Информация о фильме
Название: 6 способов умереть
Оригинальное название: 6 Ways to Sundown
Год выпуска: 2015
Жанр: боевик, триллер, криминал
Режиссер: Надим Сума
В ролях: Винни Джонс, Майкл Рене Уолтон, Вивика А. Фокс, Том Сайзмор, Бай Лин, Доминик Суэйн, Melissa Mars, Питер Добсон, Крис Джай Алекс, Хосе Росете
О фильме: Джон Доу человек-загадка. Его личность и история неизвестны. Его цель уничтожить наркодиллера Сонни Гарсия. Но прежде, чем он сделает это, он хочет, чтобы Сонни почувствовал все, что он чувствовал, выстрадал все, что он страдал и потерял все, что он потерял. Джон Доу нанимает 6 преступников с индивидуальными способностями, для выполнения своего плана. Джон хочет 6 вещей, взятых от Сонни: его свободу, его любовь, его репутацию, его самое ценное достояние, деньги и, наконец его жизнь. Жизнь Сонни быстро и эффективно превратилась в сущий ад. Его банковский счет уничтожен. Его жена исчезает. Его преданность ставится под сомнение. Но это только начало.
[imdb]http://www.imdb.com/title/tt3550902[/imdb] [kp]http://www.kinopoisk.ru/film/849996[/kp]
Выпущено: США / Formula Features
Продолжительность: 01:43:31
Озвучивание: Любительское (двухголосое) [Savetig Studios]
Файл
Формат: MKV
Качество: WEB-DL 720p
Видео: 3916 kb/s, 1280x536
Аудио: Russian: AC3, 192 kb/s (2 ch) / English: AC3, 384 kb/s (6 ch)
Субтитры: English

MI

Format : Matroska
Format version : Version 4 / Version 2
File size : 3.31 GiB
Duration : 1h 43mn
Overall bit rate : 4 583 Kbps
Encoded date : UTC 2015-08-14 12:08:56
Writing application : mkvmerge v6.1.0 ('Old Devil') built on Mar 4 2013 09:10:42
Writing library : libebml v1.3.0 + libmatroska v1.4.0
Video
ID : 1
Format : AVC
Format/Info : Advanced Video Codec
Format profile : Main@L3.1
Format settings, CABAC : No
Format settings, ReFrames : 2 frames
Codec ID : V_MPEG4/ISO/AVC
Duration : 1h 43mn
Bit rate : 3 916 Kbps
Width : 1 280 pixels
Height : 536 pixels
Display aspect ratio : 2.40:1
Frame rate mode : Constant
Frame rate : 23.976 fps
Color space : YUV
Chroma subsampling : 4:2:0
Bit depth : 8 bits
Scan type : Progressive
Bits/(Pixel*Frame) : 0.238
Stream size : 2.83 GiB (85%)
Language : English
Default : Yes
Forced : No
Color range : Limited
Color primaries : BT.709
Transfer characteristics : BT.709
Matrix coefficients : BT.709
Audio #1
ID : 2
Format : AC-3
Format/Info : Audio Coding 3
Mode extension : CM (complete main)
Format settings, Endianness : Big
Codec ID : A_AC3
Duration : 1h 43mn
Bit rate mode : Constant
Bit rate : 192 Kbps
Channel(s) : 2 channels
Channel positions : Front: L R
Sampling rate : 48.0 KHz
Bit depth : 16 bits
Compression mode : Lossy
Stream size : 142 MiB (4%)
Language : Russian
Default : Yes
Forced : No
Audio #2
ID : 3
Format : AC-3
Format/Info : Audio Coding 3
Mode extension : CM (complete main)
Format settings, Endianness : Big
Codec ID : A_AC3
Duration : 1h 43mn
Bit rate mode : Constant
Bit rate : 384 Kbps
Channel(s) : 6 channels
Channel positions : Front: L C R, Side: L R, LFE
Sampling rate : 48.0 KHz
Bit depth : 16 bits
Compression mode : Lossy
Stream size : 284 MiB (8%)
Language : English
Default : No
Forced : No
Text
ID : 4
Format : UTF-8
Codec ID : S_TEXT/UTF8
Codec ID/Info : UTF-8 Plain Text
Language : English
Default : No
Forced : No
Menu
00:00:00.000 : en:Chapter 1
00:10:11.000 : en:Chapter 2
00:19:31.000 : en:Chapter 3
00:28:01.000 : en:Chapter 4
00:35:14.000 : en:Chapter 5
00:45:32.000 : en:Chapter 6
01:00:18.000 : en:Chapter 7
01:11:37.000 : en:Chapter 8
01:20:27.000 : en:Chapter 9
01:28:27.000 : en:Chapter 10
01:40:40.000 : en:Chapter 11
[Profile] [PM]
Display posts:    
Reply to topic

Current time is: 30-Oct 14:24

All times are UTC ± 0



You cannot post new topics in this forum
You cannot reply to topics in this forum
You cannot edit your posts in this forum
You cannot delete your posts in this forum
You cannot vote in polls in this forum
You cannot attach files in this forum
You cannot download files in this forum