Племя / The Tribe (2014) WEB-DLRip-AVC Лицензия

Reply to topic
DL-List and Torrent activity
Size:  2.16 GB   |    Registered:  5 years 2 months   |    Completed:  3 times

Seeder not seen: 4 years 10 months

 
   
 
 
 
Author Message

Dream ®

Gender: Male

Longevity: 3 years 5 months

Posts: 2164



Награды: None

Post 10-Aug-2015 18:03

[Quote]


Информация о фильме
Название: Племя
Оригинальное название: The Tribe
Год выпуска: 2014
Жанр: Драма, криминал, артхаус
Выпущено: Украина, Нидерланды, Garmata Film Production, Ukrainian State Film Agency
Режиссер: Мирослав Слабошпицкий
В ролях: Григорий Фесенко, Яна Новикова, Роза Бабий, Александр Дзядевич, Ярослав Билецкий, Иван Тишко, Александр Осадчий, Александр Сидельников, Александр Паниван, Кирилл Кошик
О фильме: Главный герой фильма, Сергей, попадает в специализированный интернат для слабослышащих, где существует криминальная организация, Племя. Он пытается занять свое место в иерархии школы и принимает участие в нескольких ограблениях. Когда Сергей влюбляется в Анну, одну из наложниц Смотрящего, ему приходится нарушить неписанные законы племени...
[imdb]http://www.imdb.com/title/tt1745787[/imdb] [kp]http://www.kinopoisk.ru/film/582807[/kp]
Файл
Качество: WEB-DLRip (AVC)
Видео: MPEG-4 AVC, 1999 Кбит/с, 1024x426, 25 кадр/с
Аудио: AC3, 6 ch, 448 Кбит/с
Размер: 2.16 ГБ
Продолжительность: 02:06:28
Перевод: Не требуется (Немое кино)
Звук - Лицензия (CD Land)

Инфо-файл

Общее
Уникальный идентификатор : 225785434229734873338770033723798185440 (0xA9DCB16083D76F518B2F1C3863B7E5E0)
Полное имя : D:ЗагрузкиPlemja.2014.x264.WEB-DLRip.(AVC).ExKinoRay.mkv
Формат : Matroska
Версия формата : Version 2
Размер файла : 2,16 Гбайт
Продолжительность : 2 ч. 6 м.
Общий поток : 2449 Кбит/сек
Название фильма : Племя.2014.Rip by: ollan
Дата кодирования : UTC 2015-08-09 21:59:11
Программа кодирования : mkvmerge v5.6.0 ('Kenya Kane') built on May 27 2012 16:44:04
Библиотека кодирования : libebml v1.2.3 + libmatroska v1.3.0
Видео
Идентификатор : 1
Формат : AVC
Формат/Информация : Advanced Video Codec
Профиль формата : High@L4.1
Параметр CABAC формата : Да
Параметр ReFrames формата : 9 кадров
Идентификатор кодека : V_MPEG4/ISO/AVC
Продолжительность : 2 ч. 6 м.
Битрейт : 1999 Кбит/сек
Ширина : 1024 пикселя
Высота : 426 пикселей
Соотношение сторон : 2,40:1
Режим частоты кадров : Постоянный
Частота кадров : 25,000 кадров/сек
Цветовое пространство : YUV
Субдискретизация насыщенности : 4:2:0
Битовая глубина : 8 бит
Тип развёртки : Прогрессивная
Бит/(Пиксели*Кадры) : 0.183
Размер потока : 1,72 Гбайт (80%)
Библиотека кодирования : x264 core 125 r2200 999b753
Настройки программы : cabac=1 / ref=9 / deblock=1:-3:-3 / analyse=0x3:0x133 / me=umh / subme=11 / psy=1 / psy_rd=1.00:0.10 / mixed_ref=1 / me_range=32 / chroma_me=1 / trellis=2 / 8x8dct=1 / cqm=0 / deadzone=21,11 / fast_pskip=0 / chroma_qp_offset=-3 / threads=12 / lookahead_threads=2 / sliced_threads=0 / nr=0 / decimate=0 / interlaced=0 / bluray_compat=0 / constrained_intra=0 / bframes=9 / b_pyramid=2 / b_adapt=2 / b_bias=0 / direct=3 / weightb=1 / open_gop=0 / weightp=2 / keyint=250 / keyint_min=25 / scenecut=40 / intra_refresh=0 / rc=2pass / mbtree=0 / bitrate=1999 / ratetol=1.0 / qcomp=0.60 / qpmin=0 / qpmax=69 / qpstep=4 / cplxblur=20.0 / qblur=0.5 / ip_ratio=1.40 / pb_ratio=1.30 / aq=1:1.00
Default : Да
Forced : Нет
Аудио
Идентификатор : 2
Формат : AC-3
Формат/Информация : Audio Coding 3
Расширение режима : CM (complete main)
Параметр Endianness формата : Big
Идентификатор кодека : A_AC3
Продолжительность : 2 ч. 6 м.
Вид битрейта : Постоянный
Битрейт : 448 Кбит/сек
Каналы : 6 каналов
Расположение каналов : Front: L C R, Side: L R, LFE
Частота : 48,0 КГц
Битовая глубина : 16 бит
Метод сжатия : С потерями
Размер потока : 405 Мбайт (18%)
Заголовок : Лицензия (CD Land)
Default : Да
Forced : Нет
Меню
00:00:00.000 : :Chapter 01
00:07:23.000 : :Chapter 02
00:12:16.000 : :Chapter 03
00:17:03.000 : :Chapter 04
00:24:09.000 : :Chapter 05
00:29:45.000 : :Chapter 06
00:32:57.000 : :Chapter 07
00:38:04.000 : :Chapter 08
00:41:31.000 : :Chapter 09
00:46:51.000 : :Chapter 10
00:51:05.000 : :Chapter 11
00:57:34.000 : :Chapter 12
01:04:33.000 : :Chapter 13
01:11:40.000 : :Chapter 14
01:17:52.000 : :Chapter 15
01:23:44.000 : :Chapter 16
01:27:55.000 : :Chapter 17
01:33:36.000 : :Chapter 18
01:41:25.000 : :Chapter 19
01:48:06.000 : :Chapter 20
01:57:14.000 : :Chapter 21
02:01:11.000 : :Chapter 22
02:04:20.000 : :Chapter 23

Скриншоты



With ratio 0.06 you can not download torrents

Похожие темы
[Profile] [PM]
Display posts:    
Reply to topic

Current time is: 27-Oct 20:48

All times are UTC ± 0



You cannot post new topics in this forum
You cannot reply to topics in this forum
You cannot edit your posts in this forum
You cannot delete your posts in this forum
You cannot vote in polls in this forum
You cannot attach files in this forum
You can download files in this forum