Дивергент, глава 2: Инсургент / Insurgent (2015) BDRip 720p | iTunes

Reply to topic
DL-List and Torrent activity
Size:  2.97 GB   |    Registered:  5 years 2 months   |    Completed:  4 times

Seeder not seen: 4 years 9 months

 
   
 
 
 
Author Message

Dream ®

Gender: Male

Longevity: 3 years 4 months

Posts: 2164



Награды: None

Post 10-Aug-2015 17:58

[Quote]

Дивергент, глава 2: Инсургент / Insurgent (2015) BDRip 720p«В этом мире пора что-то менять»-
Информация о фильме
Название: Дивергент, глава 2: Инсургент
Оригинальное название: Insurgent
Год выхода: 2015
Производство: США / Red Wagon Entertainment, Mandeville Films, NeoReel
Жанр: фантастика, триллер, приключения
Продолжительность: 01:59:00
Перевод: Дублированный (iTunes Russia)
Субтитры: Русские, английские
Режиссер: Роберт Швентке
Продюсер: Люси Фишер, Пуйа Шахбазян, Дуглас Уик
Актеры: Шейлин Вудли, Тео Джеймс, Кейт Уинслет, Джай Кортни, Энсел Элгорт, Майлз Теллер, Зои Кравиц, Мекхай Файфер, Наоми Уоттс, Октавия Спенсер
Описание:
Действие фильма происходит в недалеком футуристическом будущем, когда все люди на планете поделены на пять фракций: Отречение, Дружелюбие, Бесстрашие, Эрудиция и Искренность. По достижению совершеннолетия все граждане должны выбрать фракцию, которую уже нельзя будет поменять.
В предыдущей части главная героиня фильма Трис Прайор узнала, что она – дивергент, не попадающий под общепринятые стандарты. Вместе с друзьями Трис сбежала из города в поисках лучшей жизни, однако вскоре ей предстоит вернуться, чтобы построить новый мир и навсегда покончить с тиранией...
[imdb]http://www.imdb.com/title/tt2908446[/imdb] [kp]http://www.kinopoisk.ru/film/762225[/kp]
Качество: BDRip
Видео: AVC, 1280x536 (2.35:1), 23.976 fps, 2 674 Kbps (0.163 bit/pixel)
Аудио #1: AC-3, 48.0 KHz, 6 ch, 384 Kbps, CBR (Russian)
Аудио #2: AC-3, 48.0 KHz, 6 ch, 448 Kbps, CBR (English)
Сэмпл

Скриншоты


MediaInfo

Формат : Matroska
Версия формата : Version 2
Размер файла : 2,97 Гбайт
Продолжительность : 1 ч. 59 м.
Общий поток : 3577 Кбит/сек
Название фильма : Insurgent 2015 from FAGOT100
Дата кодирования : UTC 2015-08-09 18:50:33
Программа кодирования : mkvmerge v5.3.0 ('I could have danced') built on Feb 9 2012 10:38:07
Библиотека кодирования : libebml v1.2.3 + libmatroska v1.3.0
Attachment : Yes
Видео
Идентификатор : 1
Формат : AVC
Формат/Информация : Advanced Video Codec
Профиль формата : High@L4.1
Параметр CABAC формата : Да
Параметр ReFrames формата : 10 кадров
Идентификатор кодека : V_MPEG4/ISO/AVC
Продолжительность : 1 ч. 59 м.
Битрейт : 2674 Кбит/сек
Ширина : 1280 пикселей
Высота : 536 пикселей
Соотношение сторон : 2,40:1
Режим частоты кадров : Постоянный
Частота кадров : 23,976 кадра/сек
Цветовое пространство : YUV
Субдискретизация насыщенности : 4:2:0
Битовая глубина : 8 бит
Тип развёртки : Прогрессивная
Бит/(Пиксели*Кадры) : 0.163
Размер потока : 2,22 Гбайт (75%)
Библиотека кодирования : x264 core 146 r2538 121396c
Настройки программы : cabac=1 / ref=10 / deblock=1:-3:-3 / analyse=0x3:0x133 / me=umh / subme=10 / psy=1 / psy_rd=1.00:0.00 / mixed_ref=1 / me_range=32 / chroma_me=1 / trellis=2 / 8x8dct=1 / cqm=0 / deadzone=21,11 / fast_pskip=0 / chroma_qp_offset=-2 / threads=12 / lookahead_threads=2 / sliced_threads=0 / nr=0 / decimate=0 / interlaced=0 / bluray_compat=0 / constrained_intra=0 / bframes=8 / b_pyramid=2 / b_adapt=2 / b_bias=0 / direct=3 / weightb=1 / open_gop=0 / weightp=2 / keyint=240 / keyint_min=23 / scenecut=40 / intra_refresh=0 / rc=crf / mbtree=0 / crf=18.0 / qcomp=0.60 / qpmin=0 / qpmax=69 / qpstep=4 / ip_ratio=1.40 / pb_ratio=1.30 / aq=1:1.00
Язык : English
Default : Да
Forced : Нет
Аудио #1
Идентификатор : 2
Формат : AC-3
Формат/Информация : Audio Coding 3
Расширение режима : CM (complete main)
Параметр Endianness формата : Big
Идентификатор кодека : A_AC3
Продолжительность : 1 ч. 59 м.
Вид битрейта : Постоянный
Битрейт : 384 Кбит/сек
Каналы : 6 каналов
Расположение каналов : Front: L C R, Side: L R, LFE
Частота : 48,0 КГц
Битовая глубина : 16 бит
Метод сжатия : С потерями
Размер потока : 327 Мбайт (11%)
Заголовок : DUB iTunes
Язык : Russian
Default : Да
Forced : Нет
Аудио #2
Идентификатор : 3
Формат : AC-3
Формат/Информация : Audio Coding 3
Расширение режима : CM (complete main)
Параметр Endianness формата : Big
Идентификатор кодека : A_AC3
Продолжительность : 1 ч. 59 м.
Вид битрейта : Постоянный
Битрейт : 448 Кбит/сек
Каналы : 6 каналов
Расположение каналов : Front: L C R, Side: L R, LFE
Частота : 48,0 КГц
Битовая глубина : 16 бит
Метод сжатия : С потерями
Размер потока : 381 Мбайт (13%)
Язык : English
Default : Нет
Forced : Нет
Текст #1
Идентификатор : 4
Формат : UTF-8
Идентификатор кодека : S_TEXT/UTF8
Идентификатор кодека/Информация : UTF-8 Plain Text
Язык : Russian
Default : Нет
Forced : Нет
Текст #2
Идентификатор : 5
Формат : UTF-8
Идентификатор кодека : S_TEXT/UTF8
Идентификатор кодека/Информация : UTF-8 Plain Text
Язык : English
Default : Нет
Forced : Нет
Текст #3
Идентификатор : 6
Формат : UTF-8
Идентификатор кодека : S_TEXT/UTF8
Идентификатор кодека/Информация : UTF-8 Plain Text
Заголовок : SDH
Язык : English
Default : Нет
Forced : Нет
Меню
00:00:00.000 : en:00:00:00.000
00:06:11.288 : en:00:06:11.288
00:13:35.398 : en:00:13:35.398
00:19:35.007 : en:00:19:35.007
00:26:39.431 : en:00:26:39.431
00:34:23.061 : en:00:34:23.061
00:41:13.846 : en:00:41:13.846
00:46:34.708 : en:00:46:34.708
00:53:10.103 : en:00:53:10.103
00:59:30.358 : en:00:59:30.358
01:05:59.664 : en:01:05:59.664
01:13:34.910 : en:01:13:34.910
01:22:57.931 : en:01:22:57.931
01:32:04.936 : en:01:32:04.936
01:39:09.360 : en:01:39:09.360
01:46:38.642 : en:01:46:38.642

If your ratio falls below 0.3, you will not be able to download Torrents! More about the rating.

[dis-tracker.ru].t9508.torrent 
Torrent: Registered [ 2015-08-10 17:58 ] · E81E66054CA1248FC539B280FB1D09E1D930860F

Download .torrent

Download

16 KB

Status: checked
Completed: 4 times
Size: 2.97 GB
terms.php
Похожие темы
[Profile] [PM]
Display posts:    
Reply to topic

Current time is: 22-Oct 20:18

All times are UTC ± 0



You cannot post new topics in this forum
You cannot reply to topics in this forum
You cannot edit your posts in this forum
You cannot delete your posts in this forum
You cannot vote in polls in this forum
You cannot attach files in this forum
You can download files in this forum