Беовульф / Beowulf (1999) WEB-DLRip-AVC

Reply to topic
DL-List and Torrent activity
Size:  1.46 GB   |    Registered:  5 years 2 months   |    Completed:  0 times

Seeder not seen: Never

 
   
 
 
 
Author Message

Dream ®

Gender: Male

Longevity: 3 years 5 months

Posts: 2164



Награды: None

Post 09-Aug-2015 19:45

[Quote]

Информация о фильме
Название: Беовульф
Оригинальное название: Beowulf
Год выхода: 1999
Жанр: ужасы, фантастика, фэнтези, боевик
Режиссер: Грэм Бейкер
В ролях: Кристофер Ламберт — Беовульф, Рона Митра — Кайра, Оливер Коттон — Хротгар, Гётц Отто — Роланд, Винсент Хэммонд — Грендель, Чарльз Робинсон — мастер-оружейник, Брент Джефферсон Лоу — Уил, Роджер Сломэн — Карл, Лэйла Робертс — мать Гренделя, Патрисия Веласкес — Пендра.
О фильме:
Кристофер Ламберт в роли Беовульфа, сына женщины, зачатого ею от неизвестного, могучего существа. Он непобедимый, искусный и могучий воин, ведущий вечную борьбу со злом, чтобы самому не стать злом. Раны его быстро и чудодейственно заживают, он один способен сокрушить многих и многих врагов. В этом готическом триллере с элементами фэнтези, компьютерной игры и боевика он прорывается через осаждающие замок войска, чтобы уничтожить зло, предающее смерти всех его обитателей. В замке находится хозяин, дочь и ее обожатель рыцарь Роланд. Зло в виде монстра нападает в темноте, выглядит расплывчато и напоминает инопланетную тварь...
[imdb]http://www.imdb.com/title/tt0120604[/imdb]
Страна: США Великобритания
Студия: Miramax Films, Dimension Films, Kushner-Locke Company, Capitol Films, Threshold Entertainment, European Motion Pictures Productions Ltd.
Продолжительность: 01:33:22
Перевод: Дублированный
Файл
Качество видео: WEB-DLRip-AVC
Видео: AVC, 1024x556 (16:9), 23.976 fps, 1 787 Kbps (0.131 bit/pixel)
Аудио: AC-3, 48.0 KHz, 6 ch, 448 Kbps, CBR (Russian)

MI

Format : Matroska
Format version : Version 2
File size : 1.46 GiB
Duration : 1h 33mn
Overall bit rate : 2 233 Kbps
Encoded date : UTC 2015-02-15 03:20:38
Writing application : mkvmerge v5.3.0 ('I could have danced') built on Feb 9 2012 10:38:07
Writing library : libebml v1.2.3 + libmatroska v1.3.0
Attachment : Yes
Video
ID : 1
Format : AVC
Format/Info : Advanced Video Codec
Format profile : High@L4.1
Format settings, CABAC : Yes
Format settings, ReFrames : 10 frames
Codec ID : V_MPEG4/ISO/AVC
Duration : 1h 33mn
Bit rate : 1 787 Kbps
Width : 1 024 pixels
Height : 556 pixels
Display aspect ratio : 1.85:1
Frame rate mode : Constant
Frame rate : 23.976 fps
Color space : YUV
Chroma subsampling : 4:2:0
Bit depth : 8 bits
Scan type : Progressive
Bits/(Pixel*Frame) : 0.131
Stream size : 1.14 GiB (78%)
Writing library : x264 core 142 r2431 ac76440
Encoding settings : cabac=1 / ref=10 / deblock=1:-3:-3 / analyse=0x3:0x133 / me=umh / subme=10 / psy=1 / psy_rd=1.00:0.10 / mixed_ref=1 / me_range=32 / chroma_me=1 / trellis=2 / 8x8dct=1 / cqm=0 / deadzone=21,11 / fast_pskip=1 / chroma_qp_offset=-3 / threads=12 / lookahead_threads=1 / sliced_threads=0 / nr=0 / decimate=0 / interlaced=0 / bluray_compat=0 / constrained_intra=0 / bframes=6 / b_pyramid=2 / b_adapt=2 / b_bias=0 / direct=3 / weightb=1 / open_gop=0 / weightp=2 / keyint=240 / keyint_min=23 / scenecut=40 / intra_refresh=0 / rc=2pass / mbtree=0 / bitrate=1787 / ratetol=1.0 / qcomp=0.60 / qpmin=0 / qpmax=69 / qpstep=4 / cplxblur=20.0 / qblur=0.5 / ip_ratio=1.40 / pb_ratio=1.30 / aq=1:1.00
Language : English
Default : Yes
Forced : No
Audio
ID : 2
Format : AC-3
Format/Info : Audio Coding 3
Mode extension : CM (complete main)
Format settings, Endianness : Big
Codec ID : A_AC3
Duration : 1h 33mn
Bit rate mode : Constant
Bit rate : 448 Kbps
Channel(s) : 6 channels
Channel positions : Front: L C R, Side: L R, LFE
Sampling rate : 48.0 KHz
Bit depth : 16 bits
Compression mode : Lossy
Delay relative to video : 22s 279ms
Stream size : 299 MiB (20%)
Title : DUB (Russian) Мосфильм-Мастер
Language : Russian
Default : Yes
Forced : No
Menu
00:00:00.000 : en:Chapter 1
00:01:05.000 : en:Chapter 2
00:09:51.000 : en:Chapter 3
00:19:42.000 : en:Chapter 4
00:28:24.000 : en:Chapter 5
00:38:41.000 : en:Chapter 6
00:46:24.000 : en:Chapter 7
00:55:02.000 : en:Chapter 8
01:04:00.000 : en:Chapter 9
01:10:35.000 : en:Chapter 10
01:18:08.000 : en:Chapter 11
01:27:24.000 : en:Chapter 12

Скриншоты

If your ratio falls below 0.3, you will not be able to download Torrents! More about the rating.

[dis-tracker.ru].t9481.torrent 
Torrent: Registered [ 2015-08-09 19:45 ] · 1CEB0E8D135AB4C6C223AB5D11BFAB0F2183AF84

Download .torrent

Download

15 KB

Status: checked
Completed: 0 times
Size: 1.46 GB
terms.php
Похожие темы
[Profile] [PM]
Display posts:    
Reply to topic

Current time is: 25-Oct 10:08

All times are UTC ± 0



You cannot post new topics in this forum
You cannot reply to topics in this forum
You cannot edit your posts in this forum
You cannot delete your posts in this forum
You cannot vote in polls in this forum
You cannot attach files in this forum
You can download files in this forum