За закатом рассвет / Away and Back (2015) WEB-DLRip-AVC

Reply to topic
DL-List and Torrent activity
Size:  1.61 GB   |    Registered:  5 years 2 months   |    Completed:  3 times

Seeder not seen: 3 years 4 months

 
   
 
 
 
Author Message

Dream ®

Gender: Male

Longevity: 3 years 4 months

Posts: 2164



Награды: None

Post 09-Aug-2015 15:19

[Quote]


Название: За закатом рассвет
Оригинальное название: Away and Back
Год выпуска: 2015
Жанр: Семейный, комедия, драма
Выпущено: США, Hallmark Hall of Fame Productions
Режиссер: Джефф Блекнер
В ролях: Джейсон Ли, Минка Келли, Мэгги Элизабет Джонс, Джарен Льюисон, Коннор Пейтон, Дэвид Нэйсом, Джарод Джозеф, Райан Норткотт
О фильме: Джек – отец-одиночка, воспитывающий троих детей. Вся их семья живет на берегу озера, который в свою очередь граничит с национальным парком, где орнитологи изучают одних из самых красивых птиц – лебедей. И так уж случилось, что одна лебединая пара обустроила свое гнездо как раз неподалеку от того места, где проживают наши герои. И если Джек и его старший сын к этому соседству равнодушны, то младшие - Френки и Кайл решили проявить любопытство. Их визит к гнезду не остался не замеченным. В результате этого пара лебедей атаковала двух детей, нанеся травму старшему из них. А чтобы им и впредь неповадно было соваться – птицы решили нанести свой визит, но только ночью. Но для одной из них этот полет будет последним в ее жизни...
Качество: WEB-DLRip (AVC)
Видео: MPEG-4 AVC, 2000 Кбит/с, 1024x576
Аудио: АС3, 6 ch, 384 Кбит/с
Продолжительность: 01:36:22
Перевод: Профессиональный многоголосый [iTunes]

Скриншоты

MI

Уникальный идентификатор : 176829762508655835608859923342877211486 (0x85082C685C8C5780807CE94BEAA33B5E)
Полное имя : C:UsersedgarDesktopРипыZa.Zakatom.Rassvet.2015.WEB-DLRip(AVC)-ExKinoRay.mkv
Формат : Matroska
Версия формата : Version 2
Размер файла : 1,61 Гбайт
Продолжительность : 1 ч. 36 м.
Общий поток : 2385 Кбит/сек
Дата кодирования : UTC 2015-08-09 03:53:52
Программа кодирования : mkvmerge v7.8.0 ('River Man') 32bit built on Apr 3 2015 12:11:22
Библиотека кодирования : libebml v1.3.1 + libmatroska v1.4.2
Видео
Идентификатор : 1
Формат : AVC
Формат/Информация : Advanced Video Codec
Профиль формата : High@L4.1
Параметр CABAC формата : Да
Параметр ReFrames формата : 10 кадров
Идентификатор кодека : V_MPEG4/ISO/AVC
Продолжительность : 1 ч. 36 м.
Битрейт : 2000 Кбит/сек
Ширина : 1024 пикселя
Высота : 576 пикселей
Соотношение сторон : 16:9
Режим частоты кадров : Постоянный
Частота кадров : 23,976 кадра/сек
Цветовое пространство : YUV
Субдискретизация насыщенности : 4:2:0
Битовая глубина : 8 бит
Тип развёртки : Прогрессивная
Бит/(Пиксели*Кадры) : 0.141
Размер потока : 1,32 Гбайт (82%)
Библиотека кодирования : x264 core 146 r2538 121396c
Настройки программы : cabac=1 / ref=10 / deblock=1:-2:-2 / analyse=0x3:0x113 / me=umh / subme=10 / psy=1 / psy_rd=1.00:0.00 / mixed_ref=1 / me_range=32 / chroma_me=1 / trellis=2 / 8x8dct=1 / cqm=0 / deadzone=21,11 / fast_pskip=0 / chroma_qp_offset=-2 / threads=6 / lookahead_threads=1 / sliced_threads=0 / nr=0 / decimate=0 / interlaced=0 / bluray_compat=0 / constrained_intra=0 / bframes=9 / b_pyramid=2 / b_adapt=2 / b_bias=0 / direct=3 / weightb=1 / open_gop=0 / weightp=2 / keyint=240 / keyint_min=23 / scenecut=40 / intra_refresh=0 / rc=2pass / mbtree=0 / bitrate=2000 / ratetol=1.0 / qcomp=0.60 / qpmin=0 / qpmax=51 / qpstep=4 / cplxblur=20.0 / qblur=0.5 / ip_ratio=1.40 / pb_ratio=1.30 / aq=1:1.00
Default : Да
Forced : Нет
Аудио
Идентификатор : 2
Формат : AC-3
Формат/Информация : Audio Coding 3
Расширение режима : CM (complete main)
Параметр Endianness формата : Big
Идентификатор кодека : A_AC3
Продолжительность : 1 ч. 36 м.
Вид битрейта : Постоянный
Битрейт : 384 Кбит/сек
Каналы : 6 каналов
Расположение каналов : Front: L C R, Side: L R, LFE
Частота : 48,0 КГц
Метод сжатия : С потерями
Размер потока : 265 Мбайт (16%)
Default : Да
Forced : Нет

If your ratio falls below 0.3, you will not be able to download Torrents! More about the rating.

[dis-tracker.ru].t9466.torrent 
Torrent: Registered [ 2015-08-09 15:19 ] · BE72F5CDB06026433C883DEF6BFBF327379E1E96

Download .torrent

Download

17 KB

Status: checked
Completed: 3 times
Size: 1.61 GB
terms.php
Похожие темы
[Profile] [PM]
Display posts:    
Reply to topic

Current time is: 21-Oct 06:49

All times are UTC ± 0



You cannot post new topics in this forum
You cannot reply to topics in this forum
You cannot edit your posts in this forum
You cannot delete your posts in this forum
You cannot vote in polls in this forum
You cannot attach files in this forum
You can download files in this forum