Астерикс и Обеликс: Квадрология / Asterix and Obelix: Quadrilogy (1999-2012) BDRip-AVC

Reply to topic
DL-List and Torrent activity
Size:  8.73 GB   |    Registered:  5 years 2 months   |    Completed:  0 times

Seeder not seen: Never

 
   
 
 
 
Author Message

Dream ®

Gender: Male

Longevity: 3 years 4 months

Posts: 2164



Награды: None

Post 09-Aug-2015 15:12

[Quote]

Астерикс и Обеликс. Квадрология / Astérix et Obélix. Quadrilogy

Астерикс и Обеликс против Цезаря / Astérix et Obélix contre César

«The Gauls are revolting!»
Год выпуска: 1999 г.
Производство: Франция, Германия, Италия
Жанр: фэнтези, комедия, приключения, семейный
Продолжительность: 01:45:32
Перевод: Профессиональный (полное дублирование)
Оригинальный аудиопоток: Французский
Режиссер: Клод Зиди / Claude Zidi
В ролях: Кристиан Клавье, Жерар Депардье, Роберто Бениньи, Мишель Галабрю, Клод Пьеплю, Даниэль Прево, Пьер Палмаде, Летиция Каста, Ариель Домбаль
Описание: В 50-м году до нашей эры римский император Юлий Цезарь покорил Галлию. Только жители одной маленькой деревеньки отказались платить налоги римлянам. Ведь у них есть волшебный напиток, с помощью которого неразлучные друзья Астерикс и Обеликс становятся супергероями, способными сразиться со всей Римской империей…
Качество видео: BDRip-AVC
Формат видео: MKV
Видео кодек: H.264
Аудио кодек: AC3
Видео: 1024x432, 25fps, 2191 Kbps, 0.198 bit/pixel
Аудио: 48.0 KHz, 6 ch, 384 Kbps - Rus / Fre

Астерикс и Обеликс: Миссия Клеопатра / Astérix & Obélix: Mission Cléopâtre

«Астерикс в стране мумий»
Год выпуска: 2001 г.
Производство: Франция, Германия
Жанр: фэнтези, комедия, приключения, семейный
Продолжительность: 01:48:01
Перевод: Профессиональный (полное дублирование)
Оригинальный аудиопоток: Французский
Режиссер: Ален Шаба / Alain Chabat
В ролях: Жерар Депардье, Кристиан Клавье, Жамель Деббуз, Моника Беллуччи, Ален Шаба, Клод Риш, Жерар Дармон, Эдуард Баэр, Дьедонне, Мусс Диуф
Описание: Великая Клеопатра заключила пари с римским императором Юлием Цезарем о том, что ее подданные смогут всего за три месяца построить грандиозный золотой дворец. Этой опасной чести был удостоен архитектор Нумеробис, которого — в случае неудачи — должны растерзать крокодилы.
Нумеробис вызывает на помощь своего старого друга — друида Панорамикса с зельем, дарующим сверхъестественную силу. А веселые, находчивые Астерикс и Обеликс сопровождают старца в Египет, чтобы помешать проискам Цезаря, не желающего проигрывать Клеопатре.
Качество видео: BDRip-AVC
Формат видео: MKV
Видео кодек: H.264
Аудио кодек: AC3
Видео: 1024x432, 24fps, 2123 Kbps, 0.200 bit/pixel
Аудио: 48.0 KHz, 6 ch, 384 Kbps - Rus / Fre

Астерикс на Олимпийских играх / Astérix aux jeux olympiques

Год выпуска: 2008 г.
Производство: Франция, Германия, Испания, Италия, Бельгия
Жанр: фэнтези, комедия, приключения, семейный
Продолжительность: 01:57:14
Перевод: Профессиональный (полное дублирование)
Оригинальный аудиопоток: Французский
Режиссер: Фредерик Форестье, Тома Лангманн / Frédéric Forestier, Thomas Langmann
В ролях: Жерар Депардье, Кловис Корнийяк, Бенуа Пульворд, Ален Делон, Ванесса Эсслер, Франк Дюбоск, Хосе Гарсия, Стефан Руссо, Жан-Пьер Кассель, Эли Семун
Описание: 50 лет до Рождества Христова. Вся Галлия под властью Римской Империи. Но не стоит огорчаться: одна деревня продолжает героическое сопротивление. Ведь ее жители уверены в собственной непобедимости.
Уже несколько месяцев сердце Полюбвикса бьется только ради греческой принцессы Ирины. Но, увы, он не единственный претендент на ее руку. Большая политика предназначила Ирину в жены Бруту, сыну Юлия Цезаря. Чтобы оттянуть нежеланный брак и дать шанс Полюбвиксу Ирина объявляет, что выйдет замуж за победителя Олимпийских Игр. Итак, Полюбвикс приступает к тренировкам под руководством тех, кто быстрее, выше, сильнее, и, разумеется, умнее всех — Астерикса и Обеликса. А хитрый Брут — к разработке коварного плана.
Качество видео: BDRip-AVC
Формат видео: MKV
Видео кодек: H.264
Аудио кодек: AC3
Видео: 1024x432, 24fps, 1897 Kbps, 0.179 bit/pixel
Аудио: 48.0 KHz, 6 ch, 384 Kbps - Rus / Fre

Астерикс и Обеликс в Британии / Astérix et Obélix: Au service de Sa Majesté

Год выпуска: 2012 г.
Производство: Венгрия, Испания, Италия, Франция
Жанр: комедия, приключения, семейный
Продолжительность: 01:45:32
Перевод: Профессиональный (полное дублирование)
Оригинальный аудиопоток: Французский
Режиссер: Лоран Тирар / Laurent Tirard
В ролях: Жерар Депардье, Эдуард Баэр, Гийом Гальенн, Венсан Лакост, Валери Лемерсье, Фабрис Лукини, Катрин Денев, Шарлотта Лебон, Боли Ланнерс, Дани Бун, Атмен Келиф, Жан Рошфор, Жерар Жюньо
Описание: Пятидесятый год до нашей эры. Юлий Цезарь рвется к новым завоеваниям. Во главе своих прославленных легионов он собирается захватить остров, который находится на самом краю света — таинственную страну, именуемую Британией.
Войско Цезаря одерживает быструю и безоговорочную победу. Ну… почти безоговорочную: одна крошечная деревушка продолжает яростно обороняться, однако силы на исходе, и королева бриттов Корделия отправляет своего самого надежного офицера Красовакса за подмогой в Галлию, где находится такая же маленькая деревушка, известная своим упорным сопротивлением римлянам.
Между тем, у Астерикса с Обеликсом и так забот хватает. Вождь поручил им сделать настоящего мужчину из Гадорикса, своего надоедливого племянника, недавно приехавшего из Лютеции, а выполнить это крайне непросто. Когда к галлам приезжает Красовакс, те снабжают его бочонком своего знаменитого волшебного зелья, а Астерикс и Обеликс отправляются вместе с ним в Британию. Гадорикса они тоже берут с собой, ведь путешествие — отличный способ пополнить образование молодого человека.
Но, к сожалению, все идет не так, как задумывалось…
Качество видео: BDRip-AVC
Формат видео: MKV
Видео кодек: H.264
Аудио кодек: AC3
Видео: 1024x432 (2.35), 23.976 fps, 1 939 Kbps (0.179 bit/pixel)
Аудио: 48.0 KHz, 6 ch, 448 Kbps -Rus / Fre

MediaInfo

Астерикс и Обеликс против Цезаря
Format : Matroska
Format version : Version 2
File size : 2.18 GiB
Duration : 1h 45mn
Overall bit rate : 2 960 Kbps
Movie name : Astérix et Obélix contre César (1999) - The Jolly Roger by Pirat.Ca [zyyx]
Encoded date : UTC 2012-11-04 10:21:50
Writing application : mkvmerge v4.9.1 ('Ich will') сборка от Aug 10 2011 09:31:20
Writing library : libebml v1.2.1 + libmatroska v1.2.0
Video
ID : 1
Format : AVC
Format/Info : Advanced Video Codec
Format profile : High@L4.1
Format settings, CABAC : Yes
Format settings, ReFrames : 10 frames
Codec ID : V_MPEG4/ISO/AVC
Duration : 1h 45mn
Bit rate : 2 191 Kbps
Width : 1 024 pixels
Height : 432 pixels
Display aspect ratio : 2.40:1
Frame rate : 25.000 fps
Color space : YUV
Chroma subsampling : 4:2:0
Bit depth : 8 bits
Scan type : Progressive
Bits/(Pixel*Frame) : 0.198
Stream size : 1.57 GiB (72%)
Title : JRG
Writing library : x264 core 116 r2074 2641b9e
Encoding settings : cabac=1 / ref=10 / deblock=1:-1:-1 / analyse=0x3:0x133 / me=umh / subme=11 / psy=1 / psy_rd=1.00:0.10 / mixed_ref=1 / me_range=48 / chroma_me=1 / trellis=2 / 8x8dct=1 / cqm=0 / deadzone=21,11 / fast_pskip=0 / chroma_qp_offset=-3 / threads=12 / sliced_threads=0 / nr=0 / decimate=1 / interlaced=0 / bluray_compat=0 / constrained_intra=0 / bframes=8 / b_pyramid=2 / b_adapt=2 / b_bias=0 / direct=3 / weightb=1 / open_gop=0 / weightp=2 / keyint=250 / keyint_min=25 / scenecut=40 / intra_refresh=0 / rc_lookahead=50 / rc=2pass / mbtree=1 / bitrate=2191 / ratetol=1.0 / qcomp=0.60 / qpmin=0 / qpmax=69 / qpstep=4 / cplxblur=20.0 / qblur=0.5 / ip_ratio=1.40 / aq=1:1.00
Language : English
Default : Yes
Forced : No
Audio #1
ID : 2
Format : AC-3
Format/Info : Audio Coding 3
Mode extension : CM (complete main)
Format settings, Endianness : Big
Codec ID : A_AC3
Duration : 1h 45mn
Bit rate mode : Constant
Bit rate : 384 Kbps
Channel(s) : 6 channels
Channel positions : Front: L C R, Side: L R, LFE
Sampling rate : 48.0 KHz
Bit depth : 16 bits
Compression mode : Lossy
Stream size : 290 MiB (13%)
Language : Russian
Default : Yes
Forced : No
Audio #2
ID : 3
Format : AC-3
Format/Info : Audio Coding 3
Mode extension : CM (complete main)
Format settings, Endianness : Big
Codec ID : A_AC3
Duration : 1h 45mn
Bit rate mode : Constant
Bit rate : 384 Kbps
Channel(s) : 6 channels
Channel positions : Front: L C R, Side: L R, LFE
Sampling rate : 48.0 KHz
Bit depth : 16 bits
Compression mode : Lossy
Stream size : 290 MiB (13%)
Language : French
Default : No
Forced : No
Астерикс и Обеликс: Миссия Клеопатра
Format : Matroska
Format version : Version 2
File size : 2.18 GiB
Duration : 1h 48mn
Overall bit rate : 2 892 Kbps
Movie name : Astérix & Obélix: Mission Cléopâtre (2001) - The Jolly Roger by Pirat.Ca [zyyx]
Encoded date : UTC 2012-11-04 10:33:25
Writing application : mkvmerge v4.9.1 ('Ich will') сборка от Aug 10 2011 09:31:20
Writing library : libebml v1.2.1 + libmatroska v1.2.0
Video
ID : 1
Format : AVC
Format/Info : Advanced Video Codec
Format profile : High@L4.1
Format settings, CABAC : Yes
Format settings, ReFrames : 10 frames
Codec ID : V_MPEG4/ISO/AVC
Duration : 1h 48mn
Bit rate : 2 123 Kbps
Width : 1 024 pixels
Height : 432 pixels
Display aspect ratio : 2.40:1
Frame rate : 24.000 fps
Color space : YUV
Chroma subsampling : 4:2:0
Bit depth : 8 bits
Scan type : Progressive
Bits/(Pixel*Frame) : 0.200
Stream size : 1.56 GiB (71%)
Title : JRG
Writing library : x264 core 116 r2074 2641b9e
Encoding settings : cabac=1 / ref=10 / deblock=1:-1:-1 / analyse=0x3:0x133 / me=umh / subme=11 / psy=1 / psy_rd=1.00:0.10 / mixed_ref=1 / me_range=48 / chroma_me=1 / trellis=2 / 8x8dct=1 / cqm=0 / deadzone=21,11 / fast_pskip=0 / chroma_qp_offset=-3 / threads=12 / sliced_threads=0 / nr=0 / decimate=1 / interlaced=0 / bluray_compat=0 / constrained_intra=0 / bframes=8 / b_pyramid=2 / b_adapt=2 / b_bias=0 / direct=3 / weightb=1 / open_gop=0 / weightp=2 / keyint=250 / keyint_min=23 / scenecut=40 / intra_refresh=0 / rc_lookahead=50 / rc=2pass / mbtree=1 / bitrate=2123 / ratetol=1.0 / qcomp=0.60 / qpmin=0 / qpmax=69 / qpstep=4 / cplxblur=20.0 / qblur=0.5 / ip_ratio=1.40 / aq=1:1.00
Language : English
Default : Yes
Forced : No
Audio #1
ID : 2
Format : AC-3
Format/Info : Audio Coding 3
Mode extension : CM (complete main)
Format settings, Endianness : Big
Codec ID : A_AC3
Duration : 1h 48mn
Bit rate mode : Constant
Bit rate : 384 Kbps
Channel(s) : 6 channels
Channel positions : Front: L C R, Side: L R, LFE
Sampling rate : 48.0 KHz
Bit depth : 16 bits
Compression mode : Lossy
Stream size : 297 MiB (13%)
Language : Russian
Default : Yes
Forced : No
Audio #2
ID : 3
Format : AC-3
Format/Info : Audio Coding 3
Mode extension : CM (complete main)
Format settings, Endianness : Big
Codec ID : A_AC3
Duration : 1h 48mn
Bit rate mode : Constant
Bit rate : 384 Kbps
Channel(s) : 6 channels
Channel positions : Front: L C R, Side: L R, LFE
Sampling rate : 48.0 KHz
Bit depth : 16 bits
Compression mode : Lossy
Stream size : 297 MiB (13%)
Language : French
Default : No
Forced : No
Астерикс на Олимпийских играх
Format : Matroska
Format version : Version 2
File size : 2.18 GiB
Duration : 1h 57mn
Overall bit rate : 2 661 Kbps
Movie name : Astérix aux jeux olympiques (2008) - The Jolly Roger by Pirat.Ca [zyyx]
Encoded date : UTC 2012-11-04 10:52:12
Writing application : mkvmerge v4.9.1 ('Ich will') сборка от Aug 10 2011 09:31:20
Writing library : libebml v1.2.1 + libmatroska v1.2.0
Video
ID : 1
Format : AVC
Format/Info : Advanced Video Codec
Format profile : High@L4.1
Format settings, CABAC : Yes
Format settings, ReFrames : 12 frames
Codec ID : V_MPEG4/ISO/AVC
Duration : 1h 57mn
Bit rate : 1 897 Kbps
Width : 1 024 pixels
Height : 432 pixels
Display aspect ratio : 2.40:1
Frame rate : 24.000 fps
Color space : YUV
Chroma subsampling : 4:2:0
Bit depth : 8 bits
Scan type : Progressive
Bits/(Pixel*Frame) : 0.179
Stream size : 1.51 GiB (69%)
Title : JRG
Writing library : x264 core 125 r2200 999b753
Encoding settings : cabac=1 / ref=12 / deblock=1:-1:-1 / analyse=0x3:0x133 / me=umh / subme=11 / psy=1 / psy_rd=1.00:0.10 / mixed_ref=1 / me_range=64 / chroma_me=1 / trellis=2 / 8x8dct=1 / cqm=0 / deadzone=21,11 / fast_pskip=0 / chroma_qp_offset=-3 / threads=24 / lookahead_threads=4 / sliced_threads=0 / nr=0 / decimate=1 / interlaced=0 / bluray_compat=0 / constrained_intra=0 / bframes=8 / b_pyramid=2 / b_adapt=2 / b_bias=0 / direct=3 / weightb=1 / open_gop=0 / weightp=2 / keyint=250 / keyint_min=23 / scenecut=40 / intra_refresh=0 / rc_lookahead=50 / rc=2pass / mbtree=1 / bitrate=1897 / ratetol=1.0 / qcomp=0.60 / qpmin=0 / qpmax=69 / qpstep=4 / cplxblur=20.0 / qblur=0.5 / ip_ratio=1.40 / aq=1:1.00
Language : English
Default : Yes
Forced : No
Audio #1
ID : 2
Format : AC-3
Format/Info : Audio Coding 3
Mode extension : CM (complete main)
Format settings, Endianness : Big
Codec ID : A_AC3
Duration : 1h 57mn
Bit rate mode : Constant
Bit rate : 384 Kbps
Channel(s) : 6 channels
Channel positions : Front: L C R, Side: L R, LFE
Sampling rate : 48.0 KHz
Bit depth : 16 bits
Compression mode : Lossy
Stream size : 322 MiB (14%)
Language : Russian
Default : Yes
Forced : No
Audio #2
ID : 3
Format : AC-3
Format/Info : Audio Coding 3
Mode extension : CM (complete main)
Format settings, Endianness : Big
Codec ID : A_AC3
Duration : 1h 57mn
Bit rate mode : Constant
Bit rate : 384 Kbps
Channel(s) : 6 channels
Channel positions : Front: L C R, Side: L R, LFE
Sampling rate : 48.0 KHz
Bit depth : 16 bits
Compression mode : Lossy
Stream size : 322 MiB (14%)
Language : French
Default : No
Forced : No
Астерикс и Обеликс в Британии
Format : Matroska
Format version : Version 2
File size : 2.18 GiB
Duration : 1h 50mn
Overall bit rate : 2 833 Kbps
Movie name : Astérix et Obélix: Au service de Sa Majesté (2012) - The Jolly Roger by Pirat.Ca [zyyx]
Encoded date : UTC 2013-02-20 12:00:30
Writing application : mkvmerge v4.9.1 ('Ich will') сборка от Aug 10 2011 09:31:20
Writing library : libebml v1.2.1 + libmatroska v1.2.0
Video
ID : 1
Format : AVC
Format/Info : Advanced Video Codec
Format profile : High@L4.1
Format settings, CABAC : Yes
Format settings, ReFrames : 14 frames
Codec ID : V_MPEG4/ISO/AVC
Duration : 1h 50mn
Bit rate : 1 939 Kbps
Width : 1 024 pixels
Height : 432 pixels
Display aspect ratio : 2.40:1
Frame rate : 23.976 fps
Color space : YUV
Chroma subsampling : 4:2:0
Bit depth : 8 bits
Scan type : Progressive
Bits/(Pixel*Frame) : 0.183
Stream size : 1.45 GiB (66%)
Title : JRG
Writing library : x264 core 125 r2200 999b753
Encoding settings : cabac=1 / ref=14 / deblock=1:-2:-2 / analyse=0x3:0x133 / me=umh / subme=11 / psy=1 / psy_rd=1.00:0.10 / mixed_ref=1 / me_range=48 / chroma_me=1 / trellis=2 / 8x8dct=1 / cqm=0 / deadzone=21,11 / fast_pskip=0 / chroma_qp_offset=-3 / threads=16 / lookahead_threads=6 / sliced_threads=0 / nr=0 / decimate=1 / interlaced=0 / bluray_compat=0 / constrained_intra=0 / bframes=8 / b_pyramid=2 / b_adapt=2 / b_bias=0 / direct=3 / weightb=1 / open_gop=0 / weightp=2 / keyint=250 / keyint_min=23 / scenecut=40 / intra_refresh=0 / rc_lookahead=50 / rc=2pass / mbtree=1 / bitrate=1939 / ratetol=1.0 / qcomp=0.60 / qpmin=0 / qpmax=69 / qpstep=4 / cplxblur=20.0 / qblur=0.5 / ip_ratio=1.40 / aq=1:1.00
Language : English
Default : Yes
Forced : No
Audio #1
ID : 2
Format : AC-3
Format/Info : Audio Coding 3
Mode extension : CM (complete main)
Format settings, Endianness : Big
Codec ID : A_AC3
Duration : 1h 50mn
Bit rate mode : Constant
Bit rate : 448 Kbps
Channel(s) : 6 channels
Channel positions : Front: L C R, Side: L R, LFE
Sampling rate : 48.0 KHz
Bit depth : 16 bits
Compression mode : Lossy
Stream size : 353 MiB (16%)
Language : Russian
Default : Yes
Forced : No
Audio #2
ID : 3
Format : AC-3
Format/Info : Audio Coding 3
Mode extension : CM (complete main)
Format settings, Endianness : Big
Codec ID : A_AC3
Duration : 1h 50mn
Bit rate mode : Constant
Bit rate : 448 Kbps
Channel(s) : 6 channels
Channel positions : Front: L C R, Side: L R, LFE
Sampling rate : 48.0 KHz
Bit depth : 16 bits
Compression mode : Lossy
Stream size : 353 MiB (16%)
Language : French
Default : No
Forced : No
[dis-tracker.ru].t9464.torrent 
 GOLD TORRENT! DOWNLOAD TRAFFIC DOES NOT CONSIDER! 
Torrent: Registered [ 2015-08-09 15:12 ] · 07188AB01794097EFDA0DABFE2B6EFE1539535EC

Download .torrent

Download

45 KB

Status: checked
Completed: 0 times
Size: 8.73 GB
terms.php
Похожие темы
[Profile] [PM]
Display posts:    
Reply to topic

Current time is: 20-Oct 22:20

All times are UTC ± 0



You cannot post new topics in this forum
You cannot reply to topics in this forum
You cannot edit your posts in this forum
You cannot delete your posts in this forum
You cannot vote in polls in this forum
You cannot attach files in this forum
You can download files in this forum