Как львенок и черепаха пели песню (1974) DVDRemux

Reply to topic
DL-List and Torrent activity
Size:  543 MB   |    Registered:  5 years 2 months   |    Completed:  0 times

Seeder not seen: Never

 
   
 
 
 
Author Message

Dream ®

Gender: Male

Longevity: 3 years 4 months

Posts: 2164



Награды: None

Post 09-Aug-2015 13:54

[Quote]

Как львенок и черепаха пели песню
Год выпуска: 1974
Страна: СССР
Жанр: Мультфильм, короткометражка
Режиссёр: Инесса Ковалевская
В ролях: Олег Анофриев, Ростислав Плятт
Продолжительность: 00:08:45
Перевод: Не требуется
Субтитры: Нет
Описание: Черепаха сочинила песню, а Львенок выучил ее, и они стали петь вместе.
Автор ремукса: Egorijj.Alien
Качество: DVDRemux
Формат: MKV
Видео кодек: MPEG2
Аудио кодек: AC3
Видео: 7831 kbps, 720x576 (4:3), 25 fps
Аудио 1: AC3, 448 kbps, 6 ch, 48,0 khz
Аудио 2: AC3, 224 kbps, 1 ch, 48,0 khz

Скриншоты:

Ми:

General
Unique ID : 245876611814302089349779820435330531967 (0xB8FA1CE91899674F964D0FDFDB6B827F)
Complete name : D:ВидеоДвд-ремиксКак львенок и черепаха пели песню.mkv
Format : Matroska
Format version : Version 4 / Version 2
File size : 543 MiB
Duration : 8mn 44s
Overall bit rate mode : Variable
Overall bit rate : 8 676 Kbps
Encoded date : UTC 2015-07-04 11:56:08
Writing application : mkvmerge v7.0.0 ('Where We Going') 64bit built on Jun 9 2014 15:16:27
Writing library : libebml v1.3.0 + libmatroska v1.4.1
DURATION : 00:08:44.864000000
NUMBER_OF_FRAMES : 16402
NUMBER_OF_BYTES : 14696192
_STATISTICS_WRITING_APP : mkvmerge v7.0.0 ('Where We Going') 64bit built on Jun 9 2014 15:16:27
_STATISTICS_WRITING_DATE_UTC : 2015-07-04 11:56:08
_STATISTICS_TAGS : BPS DURATION NUMBER_OF_FRAMES NUMBER_OF_BYTES
Video
ID : 1
Format : MPEG Video
Format version : Version 2
Format profile : Main@Main
Format settings, BVOP : No
Format settings, Matrix : Default
Codec ID : V_MPEG2
Codec ID/Info : MPEG 1 or 2 Video
Duration : 8mn 44s
Bit rate mode : Variable
Bit rate : 7 831 Kbps
Maximum bit rate : 9 000 Kbps
Width : 720 pixels
Height : 576 pixels
Display aspect ratio : 4:3
Frame rate mode : Constant
Frame rate : 25.000 fps
Standard : PAL
Color space : YUV
Chroma subsampling : 4:2:0
Bit depth : 8 bits
Scan type : Progressive
Scan order : Bottom Field First
Compression mode : Lossy
Bits/(Pixel*Frame) : 0.755
Time code of first frame : 00:00:00:00
Time code source : Group of pictures header
Stream size : 490 MiB (90%)
Default : Yes
Forced : No
Audio #1
ID : 2
Format : AC-3
Format/Info : Audio Coding 3
Mode extension : CM (complete main)
Format settings, Endianness : Big
Codec ID : A_AC3
Duration : 8mn 44s
Bit rate mode : Constant
Bit rate : 448 Kbps
Channel(s) : 6 channels
Channel positions : Front: L C R, Side: L R, LFE
Sampling rate : 48.0 KHz
Bit depth : 16 bits
Compression mode : Lossy
Stream size : 28.0 MiB (5%)
Default : Yes
Forced : No
Audio #2
ID : 3
Format : AC-3
Format/Info : Audio Coding 3
Mode extension : CM (complete main)
Format settings, Endianness : Big
Codec ID : A_AC3
Duration : 8mn 44s
Bit rate mode : Constant
Bit rate : 224 Kbps
Channel(s) : 1 channel
Channel positions : Front: C
Sampling rate : 48.0 KHz
Bit depth : 16 bits
Compression mode : Lossy
Stream size : 14.0 MiB (3%)
Default : No
Forced : No

If your ratio falls below 0.3, you will not be able to download Torrents! More about the rating.

[dis-tracker.ru].t9460.torrent 
Torrent: Registered [ 2015-08-09 13:54 ] · C47A8F9344034CF65FDEC4E6919587748973DBCA

Download .torrent

Download

3 KB

Status: checked
Completed: 0 times
Size: 543 MB
terms.php
Похожие темы
[Profile] [PM]
Display posts:    
Reply to topic

Current time is: 20-Oct 06:45

All times are UTC ± 0



You cannot post new topics in this forum
You cannot reply to topics in this forum
You cannot edit your posts in this forum
You cannot delete your posts in this forum
You cannot vote in polls in this forum
You cannot attach files in this forum
You can download files in this forum