Конёк-Горбунок (1975) DVDRip-AVC

Reply to topic
DL-List and Torrent activity
Size:  744 MB   |    Registered:  5 years 2 months   |    Completed:  0 times

Seeder not seen: Never

 
   
 
 
 
Author Message

Dream ®

Gender: Male

Longevity: 3 years 5 months

Posts: 2164



Награды: None

Post 09-Aug-2015 13:09

[Quote]

Название:Конёк-Горбунок
Страна: СССР
Производство: Союзмультфильм
Жанр: мультфильм, фэнтези, мелодрама, комедия, семейный
Год выпуска: 1975
Продолжительность: 01:10:34
Перевод: не требуется
Оригинальная аудиодорожка: русский
Cубтитры: нет
Режиссер: Иван Иванов-Вано
Роли озвучивали:
Светлана Харлап, Алексей Грибов, В. Енютина, Георгий Вицин, Мария Виноградова, Александр Ханов, Анатолий Кубацкий. Текст читает Алексей Сурков.
Описание:
По сказке П.Ершова, обработка стихотворного текста А.Суркова.
"3а горами, за лесами, за широкими морями..." — так начинается известная сказка "Конёк-Горбунок". Это — как заклинание, как пропуск в сокровищницу. Изумительное творение совершенно затмило автора, и сегодня далеко не каждый знает, что Пётр Павлович Ершов (1815–1869) был родом из Сибири, учился в Петербургском университете и «Горбунка» (1834) написал, будучи студентом. «Конёк-Горбунок» — произведение народное, почти слово в слово, по сообщению самого автора, взятое из уст рассказчиков, от которых он его слышал; Ершов только привёл его в более стройный вид и местами дополнил.
Мультипликационная версия создана старейшим российским режиссёром, народным артистом СССР Иваном Петровичем Ивановым-Вано в послевоенном 1947 году. С тех пор прошло более полувека. Но и сегодня этот первый российский полнометражный мультипликационный фильм покоряет зрителей неподдельной искренностью, юмором, оптимизмом. Увлекательно и задорно, красочно и непосредственно повествование об удивительных приключениях Иванушки-дурачка и его верного друга — волшебного Конька, перехитривших глупого и алчного царя.
Сразу же после появления на свет киносказка заняла особое место в истории отечественного и зарубежного кинематографа. Фильм был удостоен международных призов и наград.
К сожалению, со временем исходный материал пришёл в полную негодность, а технический уровень не позволял нужным образом восстановить ленту (*). И тогда Иванов-Вано решился на беспрецедентный шаг — объединив свои усилия с художником Л. Мильчиным, он заново нарисовал весь мультфильм, внеся коррективы во внешний вид героев, животных (на них особенно заметны различия со старой версией) и добавив новые эпизоды. Обновлённый «Конёк-горбунок» вышел на экраны в 1976 году и долгие годы именно он и радовал детишек.
Один из лучших отечественных мультфильмов, наверняка, понравится и Вашим детям.- -Исходник: DVD5 R5
Тип релиза: DVDRip-AVC
Контейнер: MKV
Видео: 688->740x554 (4:3), 25 fps, H264 ~ 1280 kbps avg, 0.134 bit/pixel
Аудио: 48 kHz, Dolby AC3 2.0, 192 kbps

MediaInfo

Общее
Полное имя : Konek-Gorbunok.1975.DVDRip-AVC_[Youtracker]_by_AVP Studio.mkv
Формат : Matroska
Версия формата : Version 2
Размер файла : 744 Мбайт
Продолжительность : 1 ч. 10 м.
Общий поток : 1474 Кбит/сек
Дата кодирования : UTC 2013-08-20 00:30:55
Программа кодирования : mkvmerge v5.0.1 ('Es ist Sommer') built on Nov 6 2011 16:23:40
Библиотека кодирования : libebml v1.2.2 + libmatroska v1.3.0
Видео
Идентификатор : 1
Формат : AVC
Формат/Информация : Advanced Video Codec
Профиль формата : High@L4.1
Параметр CABAC формата : Да
Параметр ReFrames формата : 11 кадров
Идентификатор кодека : V_MPEG4/ISO/AVC
Продолжительность : 1 ч. 10 м.
Битрейт : 1280 Кбит/сек
Ширина : 688 пикселей
Высота : 554 пикселя
Соотношение сторон : 4:3
Частота кадров : 25,000 кадров/сек
Цветовое пространство : YUV
Субдискретизация насыщенности : 4:2:0
Битовая глубина : 8 бит
Тип развёртки : Прогрессивная
Бит/(Пиксели*Кадры) : 0.134
Размер потока : 632 Мбайт (85%)
Библиотека кодирования : x264 core 130 r2273 b3065e6
Настройки программы : cabac=1 / ref=11 / deblock=1:-2:-1 / analyse=0x3:0x113 / me=umh / subme=9 / psy=1 / psy_rd=1.00:0.15 / mixed_ref=1 / me_range=32 / chroma_me=1 / trellis=1 / 8x8dct=1 / cqm=0 / deadzone=21,11 / fast_pskip=0 / chroma_qp_offset=-3 / threads=3 / lookahead_threads=1 / sliced_threads=0 / nr=0 / decimate=0 / interlaced=0 / bluray_compat=0 / constrained_intra=0 / bframes=8 / b_pyramid=2 / b_adapt=2 / b_bias=0 / direct=3 / weightb=1 / open_gop=0 / weightp=2 / keyint=250 / keyint_min=25 / scenecut=40 / intra_refresh=0 / rc_lookahead=60 / rc=2pass / mbtree=1 / bitrate=1280 / ratetol=1.0 / qcomp=0.60 / qpmin=0 / qpmax=69 / qpstep=4 / cplxblur=20.0 / qblur=0.5 / ip_ratio=1.40 / aq=1:1.00
Default : Да
Forced : Нет
Аудио
Идентификатор : 2
Формат : AC-3
Формат/Информация : Audio Coding 3
Расширение режима : CM (complete main)
Идентификатор кодека : A_AC3
Продолжительность : 1 ч. 10 м.
Вид битрейта : Постоянный
Битрейт : 192 Кбит/сек
Каналы : 2 канала
Расположение каналов : Front: L R
Частота : 48,0 КГц
Битовая глубина : 16 бит
Метод сжатия : С потерями
Размер потока : 96,9 Мбайт (13%)
Default : Да
Forced : Нет

Скриншоты

If your ratio falls below 0.3, you will not be able to download Torrents! More about the rating.

[dis-tracker.ru].t9451.torrent 
Torrent: Registered [ 2015-08-09 13:09 ] · 8213D12CA45E87B0E3C58F80939A78C27A84910A

Download .torrent

Download

15 KB

Status: checked
Completed: 0 times
Size: 744 MB
terms.php
Похожие темы
[Profile] [PM]
Display posts:    
Reply to topic

Current time is: 26-Oct 06:51

All times are UTC ± 0



You cannot post new topics in this forum
You cannot reply to topics in this forum
You cannot edit your posts in this forum
You cannot delete your posts in this forum
You cannot vote in polls in this forum
You cannot attach files in this forum
You can download files in this forum