Мимино (1977) HDTVRip 720p

Reply to topic
DL-List and Torrent activity
Size:  2.88 GB   |    Registered:  5 years 2 months   |    Completed:  3 times

Seeder not seen: 3 years 4 months

 
   
 
 
 
Author Message

Dream ®

Gender: Male

Longevity: 3 years 5 months

Posts: 2164



Награды: None

Post 09-Aug-2015 13:05

[Quote]


Информация о фильме
Название: Мимино
Год выхода: 1977
Жанр: комедия
Режиссер: Георгий Данелия
В ролях: Вахтанг Кикабидзе, Фрунзик Мкртчян, Елена Проклова, Евгений Леонов, Руслан Микаберидзе, Закро Сахвадзе, Марина Дюжева, Арчил Гомиашвили, Валентина Титова, Владимир Басов
О фильме: «Мимино» — по-грузински «сокол». Так называют друзья героя фильма, летчика Валико Мизандари, по воле режиссера то и дело попадающего в смешные, грустные, а порой драматические ситуации. Работая в родном горном селении, Мимино перевозит на вертолете почту, фрукты, овец. Но он давно мечтает о настоящей, большой авиации. Наконец ему удается воплотить свою мечту в жизнь…
Страна: СССР
Продолжительность: 01:31:11
Перевод: не требуется
Файл
Кодек: MKV
Качество: HDTVRip 720p
Видео: MPEG-4 AVC, 3950 Кбит/с, 986x720
Звук: AC3, 6 ch, 384 Кбит/с, AC3, 1 ch, 192 Кбит/с

Скриншоты

Медиа-Инфо

Общее
Уникальный идентификатор : 224179975683909778443502803186506560240 (0xA8A77E28CE9356FC8908547A2CF472F0)
Полное имя : D:Мимино_1977-HDTVRip.720p.mkv
Формат : Matroska
Версия формата : Version 2
Размер файла : 2,88 Гбайт
Продолжительность : 1 ч. 31 м.
Общий поток : 4528 Кбит/сек
Дата кодирования : UTC 2015-07-06 08:08:53
Программа кодирования : mkvmerge v5.8.0 ('No Sleep / Pillow') built on Sep 2 2012 15:37:04
Библиотека кодирования : libebml v1.2.3 + libmatroska v1.3.0
Видео
Идентификатор : 1
Формат : AVC
Формат/Информация : Advanced Video Codec
Профиль формата : High@L4.1
Параметр CABAC формата : Да
Параметр ReFrames формата : 11 кадров
Идентификатор кодека : V_MPEG4/ISO/AVC
Битрейт : 3950 Кбит/сек
Ширина : 986 пикселей
Высота : 720 пикселей
Соотношение сторон : 4:3
Режим частоты кадров : Переменный
Частота кадров в оригинале : 25,000 кадров/сек
Цветовое пространство : YUV
Субдискретизация насыщенности : 4:2:0
Битовая глубина : 8 бит
Тип развёртки : Прогрессивная
Бит/(Пиксели*Кадры) : 0.223
Библиотека кодирования : x264 core 146 r2538 121396c
Настройки программы : cabac=1 / ref=11 / deblock=1:-3:-2 / analyse=0x3:0x113 / me=umh / subme=10 / psy=1 / psy_rd=1.05:0.12 / mixed_ref=1 / me_range=32 / chroma_me=1 / trellis=2 / 8x8dct=1 / cqm=0 / deadzone=21,11 / fast_pskip=0 / chroma_qp_offset=-3 / threads=12 / lookahead_threads=2 / sliced_threads=0 / nr=0 / decimate=0 / interlaced=0 / bluray_compat=0 / constrained_intra=0 / bframes=8 / b_pyramid=2 / b_adapt=2 / b_bias=0 / direct=3 / weightb=1 / open_gop=0 / weightp=2 / keyint=250 / keyint_min=25 / scenecut=40 / intra_refresh=0 / rc_lookahead=40 / rc=2pass / mbtree=1 / bitrate=3950 / ratetol=1.0 / qcomp=0.65 / qpmin=0 / qpmax=69 / qpstep=4 / cplxblur=20.0 / qblur=0.5 / vbv_maxrate=50000 / vbv_bufsize=62500 / nal_hrd=none / filler=0 / ip_ratio=1.40 / aq=1:1.00
Язык : English
Default : Да
Forced : Нет
Основные цвета : BT.709
Характеристики трансфера : BT.709
Коэффициенты матрицы : BT.709
Аудио #1
Идентификатор : 2
Формат : AC-3
Формат/Информация : Audio Coding 3
Расширение режима : CM (complete main)
Параметр Endianness формата : Big
Идентификатор кодека : A_AC3
Продолжительность : 1 ч. 31 м.
Вид битрейта : Постоянный
Битрейт : 384 Кбит/сек
Каналы : 6 каналов
Расположение каналов : Front: L C R, Side: L R, LFE
Частота : 48,0 КГц
Битовая глубина : 16 бит
Метод сжатия : С потерями
Размер потока : 250 Мбайт (8%)
Язык : Russian
Default : Да
Forced : Нет
Аудио #2
Идентификатор : 3
Формат : AC-3
Формат/Информация : Audio Coding 3
Расширение режима : CM (complete main)
Параметр Endianness формата : Big
Идентификатор кодека : A_AC3
Продолжительность : 1 ч. 31 м.
Вид битрейта : Постоянный
Битрейт : 192 Кбит/сек
Каналы : 1 канал
Расположение каналов : Front: C
Частота : 48,0 КГц
Битовая глубина : 16 бит
Метод сжатия : С потерями
Задержка видео : 16 мс.
Размер потока : 125 Мбайт (4%)
Язык : Russian
Default : Нет
Forced : Нет

If your ratio falls below 0.3, you will not be able to download Torrents! More about the rating.

[dis-tracker.ru].t9450.torrent 
Torrent: Registered [ 2015-08-09 13:05 ] · 074C29B36013A82B6EDA66B96EB5DCFC7DDCC519

Download .torrent

Download

15 KB

Status: checked
Completed: 3 times
Size: 2.88 GB
terms.php
Похожие темы
[Profile] [PM]
Display posts:    
Reply to topic

Current time is: 25-Oct 10:34

All times are UTC ± 0



You cannot post new topics in this forum
You cannot reply to topics in this forum
You cannot edit your posts in this forum
You cannot delete your posts in this forum
You cannot vote in polls in this forum
You cannot attach files in this forum
You can download files in this forum