Приключения Электроника (1979) DVDRip

Reply to topic
DL-List and Torrent activity
Size:  1.75 GB   |    Registered:  5 years 2 months   |    Completed:  0 times

Seeder not seen: Never

 
   
 
 
 
Author Message

Dream ®

Gender: Male

Longevity: 3 years 4 months

Posts: 2164



Награды: None

Post 09-Aug-2015 10:28

[Quote]


Информация о фильме
Название: Приключения Электроника
Год выхода: 1979
Жанр: Детский, приключения, фантастика
Режиссер: Константин Бромберг
В ролях: Владимир Торсуев, Юрий Торсуев, Василий Скромный, Оксана Алексеева, Максим Калинин, Дмитрий Максимов, Евгений Лившиц, Валерия Солуян, Николай Гринько, Елизавета Никищихина, Владимир Басов, Николай Караченцов, Евгений Весник, Майя Булгакова, Николай Боярский, Роза Макагонова, Марина Самойлова, Наталья Васаженко, Юрий Чернов, Лев Перфилов, Геннадий Ялович, Валентин Кулик, Оксана Фандера, Валентина Губская, Галина Осташевская, Валерий Гутман, Анатолий Обухов, Борис Смельцов, Александр Казимиров, Андрей Гончар
О фильме: Советский ученый создает гениального робота. Это мальчик, который способен решать любые математические задачи, он пишет самые лучшие сочинения и отлично поет! А еще он - точная копия школьника Сережи Сыроежкина. Сообразительный мальчуган быстренько перекладывает все свои обязанности на электронного двойника. Тот делает за него домашние задания, ходит в школу и выполняет хозяйственные дела, которые Сыроежкину поручают родители... Этoт дeтcкий мyзыкaльный фильм oб yдивитeльныx пpиключeнияx мaльчикa и eгo двoйникa - элeктpoннoгo poбoтa, жeлaющeгo нeпpeмeннo yзнaть, чтo знaчит «быть чeлoвeкoм», в нaчaлe вocьмидecятыx гoдoв был нecoмнeнным peкopдcмeнoм пo пoпyляpнocти y юныx тeлeзpитeлeй.
Страна: СССР
Продолжительность: 3 х ~ 01:08:00
Перевод: не требуется
Файл
Формат: avi
Качество: DVDRip
Видео: XviD, ~ 1100 Кбит/с, 496x368, 0.256 bit/pixel
Звук: MP3, 2 ch, 128 Кбит/с

МедиаИнфо

Общее
Полное имя : Prikljuchenie.Elektronika.1979.XviD.DVDRip.by.GeneralFilmEL.03.avi
Формат : AVI
Формат/Информация : Audio Video Interleave
Размер файла : 597 Мбайт
Продолжительность : 1 ч. 3 м.
Общий поток : 1307 Кбит/сек
Программа кодирования : VirtualDubMod 1.5.10.3 | www.virtualdub-fr.org || (build 2550/release)
Библиотека кодирования : VirtualDubMod build 2550/release
Видео
Идентификатор : 0
Формат : MPEG-4 Visual
Профиль формата : Advanced Simple@L5
Параметр BVOP формата : 1
Параметр QPel формата : Нет
Параметр GMC формата : Без точки перехода
Параметр матрицы формата : Выборочная
Идентификатор кодека : XVID
Идентификатор кодека/Подсказка : XviD
Продолжительность : 1 ч. 3 м.
Битрейт : 1170 Кбит/сек
Ширина : 496 пикселей
Высота : 368 пикселей
Соотношение сторон : 4:3
Частота кадров : 25,000 кадров/сек
Цветовое пространство : YUV
Субдискретизация насыщенности : 4:2:0
Битовая глубина : 8 бит
Тип развёртки : Прогрессивная
Метод сжатия : С потерями
Бит/(Пиксели*Кадры) : 0.256
Размер потока : 534 Мбайт (89%)
Библиотека кодирования : XviD 73
Аудио
Идентификатор : 1
Формат : MPEG Audio
Версия формата : Version 1
Профиль формата : Layer 3
Идентификатор кодека : 55
Идентификатор кодека/Подсказка : MP3
Продолжительность : 1 ч. 3 м.
Вид битрейта : Постоянный
Битрейт : 128 Кбит/сек
Каналы : 2 канала
Частота : 48,0 КГц
Метод сжатия : С потерями
Размер потока : 58,4 Мбайт (10%)
Выравнивание : Соединение по промежуткам
Продолжительность промежутка : 40 мс. (1,00 видеокадр)
Время предзагрузки промежутка : 504 мс.
Библиотека кодирования : LAME3.99r
Настройки программы : -m s -V 4 -q 0 -lowpass 17 -b 128

Скриншоты





If your ratio falls below 0.3, you will not be able to download Torrents! More about the rating.

[dis-tracker.ru].t9435.torrent 
Torrent: Registered [ 2015-08-09 10:28 ] · 65DA579FC7B2787FDEBAE963825AA74BBF092864

Download .torrent

Download

19 KB

Status: checked
Completed: 0 times
Size: 1.75 GB
terms.php
Похожие темы
[Profile] [PM]
Display posts:    
Reply to topic

Current time is: 20-Oct 00:03

All times are UTC ± 0



You cannot post new topics in this forum
You cannot reply to topics in this forum
You cannot edit your posts in this forum
You cannot delete your posts in this forum
You cannot vote in polls in this forum
You cannot attach files in this forum
You can download files in this forum