Свадьба в Малиновке (1967) BDRip

Reply to topic
DL-List and Torrent activity
Size:  745 MB   |    Registered:  5 years 2 months   |    Completed:  0 times

Seeder not seen: Never

 
   
 
 
 
Author Message

Dream ®

Gender: Male

Longevity: 3 years 4 months

Posts: 2164



Награды: None

Post 09-Aug-2015 10:26

[Quote]


Страна: СССР
Жанр: мюзикл, комедия
Год выпуска: 1967
Продолжительность: 01:32:19-Перевод: Не требуется
Режиссер: Андрей Тутышкин
В ролях: Владимир Самойлов (Назар Дума), Людмила Алфимова (Софья), Валентина Николаенко (Яринка), Евгений Лебедев (Нечипор), Зоя Фёдорова (Горпина Дормидонтовна), Гелий Сысоев (Андрейка), Михаил Пуговкин (Яшка-артиллерист), Николай Сличенко (Петря Бессарабец), Андрей Абрикосов (Балясный), Григорий Абрикосов (Грициан Таврический), Михаил Водяной (Попандопуло), Тамара Носова (Комариха)
Дублёры: Валентина Левко (Софья (вокал)), Галина Ковалева (Яринка (вокал)), Евгений Лебедев (Нечипор (вокал)), Михаил Егоров (Андрейка (вокал)), Михаил Пуговкин (Яшка-артиллерист (вокал)), Михаил Водяной (Попандопуло (вокал))-Описание: Идет гражданская воина. В украинской деревне то и дело меняется власть. Чтобы разделаться с бандой головорезов, красный командир уговаривает девушку Яринку разыграть ее свадьбу с атаманом...-imdb.com: 7.10 (326)-Качество: BDRip | Sample
Исходник: BD
Контейнер: AVI
Видео: XviD, 720x304 (2.35:1), 991 kbps, 23,976 fps, 0,189 bpp
Аудио: MP3 / 2.0 / 48 kHz / 128 kbps /-

Скриншоты

Media Info

General
Complete name : E:My_ripSvadba.v.Malinovke.1967.BDRip.[Youtracker].by_Дядя_Лёша.avi
Format : AVI
Format/Info : Audio Video Interleave
File size : 745 MiB
Duration : 1h 32mn
Overall bit rate : 1 128 Kbps
Writing application : VirtualDubMod 1.5.10.3 | www.virtualdub-fr.org || (build 2550/release)
Writing library : VirtualDubMod build 2550/release
Video
ID : 0
Format : MPEG-4 Visual
Format profile : Advanced Simple@L5
Format settings, BVOP : 2
Format settings, QPel : No
Format settings, GMC : No warppoints
Format settings, Matrix : Custom
Codec ID : XVID
Codec ID/Hint : XviD
Duration : 1h 32mn
Bit rate : 991 Kbps
Width : 720 pixels
Height : 304 pixels
Display aspect ratio : 2.35:1
Frame rate : 23.976 fps
Color space : YUV
Chroma subsampling : 4:2:0
Bit depth : 8 bits
Scan type : Progressive
Compression mode : Lossy
Bits/(Pixel*Frame) : 0.189
Stream size : 655 MiB (88%)
Writing library : XviD 65
Audio
ID : 1
Format : MPEG Audio
Format version : Version 1
Format profile : Layer 3
Codec ID : 55
Codec ID/Hint : MP3
Duration : 1h 32mn
Bit rate mode : Constant
Bit rate : 128 Kbps
Channel(s) : 2 channels
Sampling rate : 48.0 KHz
Compression mode : Lossy
Stream size : 84.5 MiB (11%)
Alignment : Aligned on interleaves
Interleave, duration : 42 ms (1.00 video frame)
Interleave, preload duration : 504 ms
Writing library : LAME3.99r
Encoding settings : -m s -V 4 -q 2 -lowpass 17 -b 128

If your ratio falls below 0.3, you will not be able to download Torrents! More about the rating.

[dis-tracker.ru].t9434.torrent 
Torrent: Registered [ 2015-08-09 10:26 ] · 5DC97B7ABC29931B3FA0D933594B652582E89A02

Download .torrent

Download

16 KB

Status: checked
Completed: 0 times
Size: 745 MB
terms.php
Похожие темы
[Profile] [PM]
Display posts:    
Reply to topic

Current time is: 20-Oct 02:51

All times are UTC ± 0



You cannot post new topics in this forum
You cannot reply to topics in this forum
You cannot edit your posts in this forum
You cannot delete your posts in this forum
You cannot vote in polls in this forum
You cannot attach files in this forum
You can download files in this forum