Каникулы строгого режима (2009) SATRip-AVC Полная версия

Reply to topic
DL-List and Torrent activity
Size:  2.07 GB   |    Registered:  5 years 2 months   |    Completed:  0 times

Seeder not seen: 5 years

 
   
 
 
 
Author Message

Dream ®

Gender: Male

Longevity: 3 years 4 months

Posts: 2164



Награды: None

Post 09-Aug-2015 10:23

[Quote]


Информация о фильме
Название: Каникулы строгого режима (Полная версия)
Год выпуска: 2009
Жанр: Комедия, Детектив, Приключения
Режиссер: Игорь Зайцев
В ролях: Сергей Безруков, Дмитрий Дюжев, Сабина Ахмедова, Алена Бабенко, Владимир Меньшов, Алексей Кравченко, Александр Лыков, Кирилл Плетнёв, Людмила Полякова, Тимур Боканча, Андрей Кивинов
О фильме:
История о том, как двое не самых молодых людей, Кольцов и Сумароков, волею судьбы оказались вожатыми в пионерском лагере в компании в меру энергичного руководства и не в меру энергичных детей. Все бы ничего, да только попали они туда прямо с арестантской шконки.
Сначала Кольцов, будучи весьма уважаемым профессиональным сотрудником МВД, имеющий за плечами две поездки в Чечню, вдруг по неосторожности совершает убийство своего коллеги. Стараниями родственников покойного попадает на «черную» зону, где ему не рад никто от руководящей элиты до зэков. Там он знакомится с Сумароковым. При содействии сотрудника колонии Гагарина мужчины бегут из тюрьмы и устраиваются вожатыми в пионерлагерь.
Выпущено: Россия, Buzz Production, Дирекция Кино
Продолжительность: 02:20:21
Перевод: Не требуется
Файл
Кодек: x264
Качество: SATRip-AVC (Kanikuly.strogogo.rezhima_polnaja.versija.2009.DVB.)
Видео: 720x320 (2,25:1), 25,000 fps, x264 ~ 1885 kbps avg, 0.327 bit/pixel
Аудио: 48,0 kHz, Audio Coding 3, 2 ch, Front: L R, ~224 kbps avg

Скриншоты



MI:

Общее
Уникальный идентификатор : 183571735834241000199673561681610158191 (0x8A1AA15B40460D24B20387DB1E6C306F)
Полное имя : D:ВидеоКаникулы строгого режима(Полная ТВ версия) . 2009. SATRip by Vovan1979(RG WazZzuP)KZ.mkv
Формат : Matroska
Версия формата : Version 2
Размер файла : 2,07 Гбайт
Продолжительность : 2 ч. 20 м.
Общий поток : 2111 Кбит/сек
Дата кодирования : UTC 2014-08-30 13:25:39
Программа кодирования : mkvmerge v6.1.0 ('Old Devil') built on Mar 4 2013 09:10:42
Библиотека кодирования : libebml v1.3.0 + libmatroska v1.4.0
Видео
Идентификатор : 1
Формат : AVC
Формат/Информация : Advanced Video Codec
Профиль формата : High@L4.1
Параметр CABAC формата : Да
Параметр ReFrames формата : 9 кадров
Идентификатор кодека : V_MPEG4/ISO/AVC
Продолжительность : 2 ч. 20 м.
Битрейт : 1885 Кбит/сек
Ширина : 720 пикселей
Высота : 320 пикселей
Соотношение сторон : 2,25:1
Режим частоты кадров : Постоянный
Частота кадров : 25,000 кадров/сек
Цветовое пространство : YUV
Субдискретизация насыщенности : 4:2:0
Битовая глубина : 8 бит
Тип развёртки : Прогрессивная
Бит/(Пиксели*Кадры) : 0.327
Размер потока : 1,81 Гбайт (87%)
Библиотека кодирования : x264 core 130 r2273 b3065e6
Настройки программы : cabac=1 / ref=9 / deblock=1:-1:-1 / analyse=0x3:0x113 / me=umh / subme=9 / psy=1 / psy_rd=1.00:0.15 / mixed_ref=1 / me_range=32 / chroma_me=1 / trellis=2 / 8x8dct=1 / cqm=0 / deadzone=21,11 / fast_pskip=1 / chroma_qp_offset=-3 / threads=6 / lookahead_threads=1 / sliced_threads=0 / nr=0 / decimate=1 / interlaced=0 / bluray_compat=0 / constrained_intra=0 / bframes=8 / b_pyramid=2 / b_adapt=2 / b_bias=0 / direct=3 / weightb=1 / open_gop=0 / weightp=2 / keyint=250 / keyint_min=25 / scenecut=40 / intra_refresh=0 / rc_lookahead=40 / rc=2pass / mbtree=1 / bitrate=1885 / ratetol=1.0 / qcomp=0.60 / qpmin=0 / qpmax=69 / qpstep=4 / cplxblur=20.0 / qblur=0.5 / ip_ratio=1.40 / aq=1:1.00
Default : Да
Forced : Нет
Аудио
Идентификатор : 2
Формат : AC-3
Формат/Информация : Audio Coding 3
Расширение режима : CM (complete main)
Параметр Endianness формата : Big
Идентификатор кодека : A_AC3
Продолжительность : 2 ч. 20 м.
Вид битрейта : Постоянный
Битрейт : 224 Кбит/сек
Каналы : 2 канала
Расположение каналов : Front: L R
Частота : 48,0 КГц
Битовая глубина : 16 бит
Метод сжатия : С потерями
Размер потока : 225 Мбайт (11%)
Default : Да
Forced : Нет

If your ratio falls below 0.3, you will not be able to download Torrents! More about the rating.

[dis-tracker.ru].t9433.torrent 
Torrent: Registered [ 2015-08-09 10:23 ] · 701B23B6E186113900CB36D6094E35F0D98CEF31

Download .torrent

Download

11 KB

Status: checked
Completed: 0 times
Size: 2.07 GB
terms.php
Похожие темы
[Profile] [PM]
Display posts:    
Reply to topic

Current time is: 20-Oct 22:45

All times are UTC ± 0



You cannot post new topics in this forum
You cannot reply to topics in this forum
You cannot edit your posts in this forum
You cannot delete your posts in this forum
You cannot vote in polls in this forum
You cannot attach files in this forum
You can download files in this forum