Остров сокровищ / Treasure Island (1990) WEB-DLRip

Reply to topic
DL-List and Torrent activity
Size:  1.46 GB   |    Registered:  5 years 2 months   |    Completed:  0 times

Seeder not seen: Never

 
   
 
 
 
Author Message

Dream ®

Gender: Male

Longevity: 3 years 5 months

Posts: 2164



Награды: None

Post 09-Aug-2015 07:58

[Quote]


Информация о фильме
Название: Остров сокровищ
Оригинальное название: Treasure Island
Год выхода: 1990
Жанр: приключения
Режиссер: Фрейзер Кларк Хестон / Fraser Clarke Heston
В ролях: Чарлтон Хестон, Кристиан Бэйл, Оливер Рид, Кристофер Ли, Ричард Джонсон, Джулиан Гловер, Айла Блэр, Клив Вуд, Николас Амер, Джон Эбботт, Джеймс Койл, Майкл Халсли, Майкл Тома, Пит Постлетуэйт, Роберт Патт, Бретт Фэнси, Джон Бенфилд, Ричард Бил, Стивен Макинтош, Джеймс Космо, Билл Слоун, Дэвид Спид
О фильме:
Экранизация всемирно известного романа шотландского писателя Роберта Льюиса Стивенсона. Совершенно случайно в руки смелого Джима Хокинса попадает старинная морская карта, которая оказывается картой самого легендарного капитана Флинта. На ней указаны координаты острова в Атлантическом океане, где спрятаны сокровища знаменитого пирата. Вместе с бесстрашными друзьями, доктором Ливси и сквайром Трелони, на шхуне «Испаньола» Джим отправляется в опасное плавание к далекому острову. Но случилось так, что на этом же судне в плавание отправились и пираты — бывшие члены команды капитана Флинта. Во главе шайки стоит Джон Сильвер - коварный и кровожадный пират, который прикинулся скромным корабельным коком...
Страна: США, Великобритания
Продолжительность: 02:11:17
Перевод: Профессиональный (дублированный) Варус Видео
Файл
Кодек: XviD
Качество: WEB-DLRip
Видео: 688x384, 23,976 fps, 1394 kbps
Звук: AC3, 48 kHz, 2ch, 192 kbps

MI

Общее
Полное имя : Treasure.Island.by_rohh.1990.WEB-DLRip.avi
Формат : AVI
Формат/Информация : Audio Video Interleave
Размер файла : 1,46 Гбайт
Продолжительность : 2 ч. 11 м.
Общий поток : 1595 Кбит/сек
Программа кодирования : VirtualDubMod 1.5.10.2 (build 2542/release)
Библиотека кодирования : VirtualDubMod build 2542/release
Видео
Идентификатор : 0
Формат : MPEG-4 Visual
Профиль формата : Advanced Simple@L5
Параметр BVOP формата : 2
Параметр QPel формата : Нет
Параметр GMC формата : Без точки перехода
Параметр матрицы формата : Выборочная
Идентификатор кодека : XVID
Идентификатор кодека/Подсказка : XviD
Продолжительность : 2 ч. 11 м.
Битрейт : 1394 Кбит/сек
Ширина : 688 пикс.
Высота : 384 пикс.
Соотношение сторон : 16:9
Частота кадров : 23,976 кадр/сек
Цветовое пространство : YUV
Подвыборка цветности : 4:2:0
Битовая глубина : 8 бит
Тип развёртки : Прогрессивная
Метод сжатия : С потерями
Бит/(Пиксели*Кадры) : 0.220
Размер потока : 1,28 Гбайт (87%)
Библиотека кодирования : XviD 73
Аудио
Идентификатор : 1
Формат : AC-3
Формат/Информация : Audio Coding 3
Расширение режима : CM (complete main)
Идентификатор кодека : 2000
Продолжительность : 2 ч. 11 м.
Вид битрейта : Постоянный
Битрейт : 192 Кбит/сек
Канал(ы) : 2 канала(ов)
Расположение каналов : Front: L R
Частота : 48,0 КГц
Битовая глубина : 16 бит
Метод сжатия : С потерями
Размер потока : 180 Мбайт (12%)
Выравнивание : Разделение по промежуткам
Продолжительность промежутка : 42 мс. (1,00 видеокадр)
Время предзагрузки промежутка : 500 ms

Скриншоты

With ratio 0.05 you can not download torrents

Похожие темы
[Profile] [PM]
Display posts:    
Reply to topic

Current time is: 28-Oct 20:42

All times are UTC ± 0



You cannot post new topics in this forum
You cannot reply to topics in this forum
You cannot edit your posts in this forum
You cannot delete your posts in this forum
You cannot vote in polls in this forum
You cannot attach files in this forum
You can download files in this forum