За спичками (1979) DVDRip

Reply to topic
DL-List and Torrent activity
Size:  1.46 GB   |    Registered:  5 years 2 months   |    Completed:  0 times

Seeder not seen: Never

 
   
 
 
 
Author Message

Dream ®

Gender: Male

Longevity: 3 years 5 months

Posts: 2164



Награды: None

Post 09-Aug-2015 07:31

[Quote]

Страна: СССР, Финляндия
Производство: Мосфильм, Suomi-Filmi
Жанр: комедия
Год выпуска: 1979
Продолжительность: 01:33:50
Перевод: не требуется
Оригинальная аудиодорожка: русский
Cубтитры: нет
Режиссер: Леонид Гайдай, Ристо Орко / Risto Orko
В ролях:
Евгений Леонов, Вячеслав Невинный, Рита Полстер, Ритва Валкама, Георгий Вицин, Галина Польских, Сергей Филиппов, Нина Гребешкова, Михаил Пуговкин...
Описание:
Фильм снят по повести классика финской литературы Майю Лассила и освещает события 1910 года.
В сюжете повести много столь необходимых комедии "если бы". В доме Ихалайнена кончились спички и невозможно развести огонь для приготовления так любимого финнами кофе. Потом случайная встреча с приятелем, и как следствие того, нарушение данного двадцать лет назад зарока не брать в рот спиртного. Затем неожиданное свидание в городе Юсси Ватанена со своей старой подружкой. Добавьте к этому неповторимые, тонко обыгранные писателем черточки национального характера, своеобразного быта, приплюсуйте эксцентричность натур главных героев, то и дело попадающих в совершенно невероятные ситуации. И когда вы проделаете все это, то поймете, что данный литературный сюжет на редкость богат возможностями для трюковых съемок, для комедии положений, для словесного юмора, для кинематографической эксцентрики. А это как раз то, что требуется в хорошей комедии.…- -Исходник: DVD5 R5
Тип релиза: DVDRip
Контейнер: AVI
Видео: 720x528 (4:3), 25 fps, XviD ~ 1762 kbps avg, 0.185 bit/pixel
Аудио: 48 kHz, Dolby AC3 5.1, 448 kbps

MediaInfo

Общее
Полное имя : Za.spichkami.1979.DVDRip_[Youtracker]_by_AVP Studio.avi
Формат : AVI
Формат/Информация : Audio Video Interleave
Размер файла : 1,46 Гбайт
Продолжительность : 1 ч. 33 м.
Общий поток : 2220 Кбит/сек
Программа кодирования : VirtualDubModRus 1.5.10.2 (build 2542/release)
Библиотека кодирования : VirtualDubMod build 2542/release
Видео
Идентификатор : 0
Формат : MPEG-4 Visual
Профиль формата : Advanced Simple@L5
Параметр BVOP формата : 1
Параметр QPel формата : Нет
Параметр GMC формата : Без точки перехода
Параметр матрицы формата : Выборочная
Идентификатор кодека : XVID
Идентификатор кодека/Подсказка : XviD
Продолжительность : 1 ч. 33 м.
Битрейт : 1762 Кбит/сек
Ширина : 720 пикселей
Высота : 528 пикселей
Соотношение сторон : 4:3
Частота кадров : 25,000 кадров/сек
Цветовое пространство : YUV
Субдискретизация насыщенности : 4:2:0
Битовая глубина : 8 бит
Тип развёртки : Прогрессивная
Метод сжатия : С потерями
Бит/(Пиксели*Кадры) : 0.185
Размер потока : 1,16 Гбайт (79%)
Библиотека кодирования : XviD 73
Аудио
Идентификатор : 1
Формат : AC-3
Формат/Информация : Audio Coding 3
Расширение режима : CM (complete main)
Идентификатор кодека : 2000
Продолжительность : 1 ч. 33 м.
Вид битрейта : Постоянный
Битрейт : 448 Кбит/сек
Каналы : 6 каналов
Расположение каналов : Front: L C R, Side: L R, LFE
Частота : 48,0 КГц
Битовая глубина : 16 бит
Метод сжатия : С потерями
Размер потока : 301 Мбайт (20%)
Выравнивание : Разделение по промежуткам
Продолжительность промежутка : 40 мс. (1,00 видеокадр)
Время предзагрузки промежутка : 500 мс

Скриншоты

Интересные факты

На карте Финляндии есть и Липери, и Йоки, и Киихтелюс, — в провинции Северная Карелия. Съёмки же самого фильма проходили в г. Порвоо.
Фильм существует в двух версиях: на финском языке и русском, причём это относится и к песням, звучащим в фильме. Версия, смонтированная Орко, отличается большей продолжительностью, в версии Гайдая отсутствует несколько сцен.
Ранее повесть была экранизирована в Финляндии в 1938 году.

If your ratio falls below 0.3, you will not be able to download Torrents! More about the rating.

[dis-tracker.ru].t9416.torrent 
Torrent: Registered [ 2015-08-09 07:31 ] · A733DD1A1A69CFF60E47281804CAC18C77F8DD3A

Download .torrent

Download

15 KB

Status: checked
Completed: 0 times
Size: 1.46 GB
terms.php
Похожие темы
[Profile] [PM]
Display posts:    
Reply to topic

Current time is: 25-Oct 13:34

All times are UTC ± 0



You cannot post new topics in this forum
You cannot reply to topics in this forum
You cannot edit your posts in this forum
You cannot delete your posts in this forum
You cannot vote in polls in this forum
You cannot attach files in this forum
You can download files in this forum