Укол зонтиком / Le Coup Du Parapluie (1980) HDRip

Reply to topic
DL-List and Torrent activity
Size:  1.46 GB   |    Registered:  5 years 2 months   |    Completed:  0 times

Seeder not seen: Never

 
   
 
 
 
Author Message

Dream ®

Gender: Male

Longevity: 3 years 4 months

Posts: 2164



Награды: None

Post 09-Aug-2015 07:28

[Quote]

Укол зонтиком / Le Coup Du Parapluie- Страна: Франция
Жанр: комедия, криминал
Год выпуска: 1980
Продолжительность: 01:34:15
Перевод: Профессиональный (многоголосый закадровый) НТВ
Cубтитры: нет
Оригинальная аудиодорожка: нет
Режиссер: Жерар Ури / Gerard Oury
В ролях: Пьер Ришар, Валери Мересс, Кристин Мурильо, Гордон Митчелл, Жерар Жюньо, Морис Риш, Доминик Лаванан, Аксель Аббади, Ясин Хан, Дидье Совегран
Описание: Фильм повествует об актере, нанятом исполнить роль убийцы, и об убийце, нанятом убивать. Соседствующие офисы, путаница в документах, а в результате актер должен убить промышленника уколом отравленного зонтика...

Качество видео: HDRip - Исходник WEB-DL 720p
Формат видео: AVI
Видео кодек: XviD
Аудио кодек: AC3
Видео: 720x432 (1.67:1), 24.000 fps, XviD build 73 ~2010 kbps avg, 0.27 bit/pixel
Аудио: 48 kHz, AC3, 2/0 (L,R) ch, ~192.00 kbps avg-

Скриншоты

MI

D:Мои рипыLe.Coup.du.parapluie.1980.HDRip.dexter_lex.avi
General
Complete name : D:Мои рипыLe.Coup.du.parapluie.1980.HDRip.dexter_lex.avi
Format : AVI
Format/Info : Audio Video Interleave
File size : 1.46 GiB
Duration : 1h 34mn
Overall bit rate : 2 212 Kbps
Writing application : VirtualDubMod 1.5.10.3 | www.virtualdub-fr.org || (build 2550/release)
Writing library : VirtualDubMod build 2550/release
Video #0
ID : 0
Format : MPEG-4 Visual
Format profile : Advanced Simple@L5
Format settings, BVOP : 1
Format settings, QPel : No
Format settings, GMC : No warppoints
Format settings, Matrix : Custom
Codec ID : XVID
Codec ID/Hint : XviD
Duration : 1h 34mn
Bit rate : 2 010 Kbps
Width : 720 pixels
Height : 432 pixels
Display aspect ratio : 1.667
Frame rate : 24.000 fps
Color space : YUV
Chroma subsampling : 4:2:0
Bit depth : 8 bits
Scan type : Progressive
Compression mode : Lossy
Bits/(Pixel*Frame) : 0.269
Stream size : 1.32 GiB (91%)
Writing library : XviD 73
Audio #1
ID : 1
Format : AC-3
Format/Info : Audio Coding 3
Format profile : Dolby Digital
Mode extension : CM (complete main)
Codec ID : 2000
Duration : 1h 34mn
Bit rate mode : Constant
Bit rate : 192 Kbps
Channel(s) : 2 channels
Channel positions : Front: L R
Sampling rate : 48.0 KHz
Bit depth : 16 bits
Compression mode : Lossy
Stream size : 129 MiB (9%)
Alignment : Split accross interleaves
Interleave, duration : 42 ms (1.00 video frame)
Interleave, preload duration : 500 ms

If your ratio falls below 0.3, you will not be able to download Torrents! More about the rating.

[dis-tracker.ru].t9415.torrent 
Torrent: Registered [ 2015-08-09 07:28 ] · 5434E266253ACE9DDD9377A831A4DC3119F442AF

Download .torrent

Download

15 KB

Status: checked
Completed: 0 times
Size: 1.46 GB
terms.php
[Profile] [PM]
Display posts:    
Reply to topic

Current time is: 20-Oct 05:39

All times are UTC ± 0



You cannot post new topics in this forum
You cannot reply to topics in this forum
You cannot edit your posts in this forum
You cannot delete your posts in this forum
You cannot vote in polls in this forum
You cannot attach files in this forum
You can download files in this forum