Морозко (1964) DVDRip

Reply to topic
DL-List and Torrent activity
Size:  740 MB   |    Registered:  5 years 2 months   |    Completed:  0 times

Seeder not seen: Never

 
   
 
 
 
Author Message

Dream ®

Gender: Male

Longevity: 3 years 4 months

Posts: 2164



Награды: None

Post 07-Aug-2015 18:27

[Quote]

Год выпуска: 1964
Страна: СССР
Жанр: фэнтези, мелодрама, комедия, семейный
Продолжительность: 01:18:50
Перевод: не требуется
Субтитры: нет
Оригинальная аудиодорожка: русский
Режиссер: Александр Роу
В ролях: Александр Хвыля, Наталья Седых, Эдуард Изотов, Инна Чурикова, Павел Павленко, Вера Алтайская, Георгий Милляр, Галина Борисова (озвучание - Михаил Яншин), Анатолий Кубацкий, Валентин Брылеев, Татьяна Пельтцер, Татьяна Барышева, Варвара Попова, Зинаида Воркуль, Наталья Зорина, Клавдия Козлёнкова, Маргарита Корабельникова, Вера Петрова, Лев Потемкин, Андрей Стапран (озвучание - Юрий Медведев), Константин Старостин, Александр Тимонтаев, Юрий Чекулаев, Михаил Щербаков, Оля и Таня Юкины, Анастасия Зуева...
Описание: Жили-были старик со старухой, и было у них две дочери. Одна, старикова - красавица, умница, рукодельница Настенька. Другая, старухина - некрасивая лентяйка и неумеха Марфушка. Тяжело жилось Настеньке в отчем доме, заставляла ее мачеха работать с утра до ночи и с ночи до утра, да всю злобу на ней вымещала. А в другой деревне жил с матерью добрый молодец Иван, любивший лишь себя самого и красотой да статью своей похвалявшийся. Отправился как-то Иван погулять по белу свету - людей посмотреть и себя показать. И повстречался ему волшебник - старичок Боровичок, подаривший Ивану волшебный лук и стрелы. А невежа Иван ему даже "спасибо" не сказал. Потом встретил Иван Настеньку - и поначалу на красу ее наглядеться не мог, однако, и ее обидел...
Награды: "Золотой лев Святого Марка" на XVII Международном кинофестивале детских и юношеских фильмов в Венеции (1965), "Award of Excellence" от Консультативного совета по кинематографии США за лучший киносценарий для семейного просмотра- -Исходник: DVD5 R5
Тип релиза: DVDRip
Контейнер: AVI
Видео: 656x496 (4:3), 25 fps, XviD ~ 1175 kbps avg, 0.144 bit/pixel
Аудио: 48 kHz, MP3, 2 ch, 128.00 kbps

MediaInfo

Общее
Полное имя : Morozko.1964.DVDRip_[Youtracker]_by_AVP Studio.avi
Формат : AVI
Формат/Информация : Audio Video Interleave
Размер файла : 740 Мбайт
Продолжительность : 1 ч. 18 м.
Общий поток : 1312 Кбит/сек
Программа кодирования : VirtualDubModRus 1.5.10.2 (build 2542/release)
Библиотека кодирования : VirtualDubMod build 2542/release
Видео
Идентификатор : 0
Формат : MPEG-4 Visual
Профиль формата : Advanced Simple@L5
Параметр BVOP формата : 2
Параметр QPel формата : Нет
Параметр GMC формата : Без точки перехода
Параметр матрицы формата : Выборочная
Режим смешивания : Сжатый битовый поток
Идентификатор кодека : XVID
Идентификатор кодека/Подсказка : XviD
Продолжительность : 1 ч. 18 м.
Битрейт : 1175 Кбит/сек
Ширина : 656 пикселей
Высота : 496 пикселей
Соотношение сторон : 4:3
Частота кадров : 25,000 кадров/сек
Цветовое пространство : YUV
Субдискретизация насыщенности : 4:2:0
Битовая глубина : 8 бит
Тип развёртки : Прогрессивная
Метод сжатия : С потерями
Бит/(Пиксели*Кадры) : 0.144
Размер потока : 662 Мбайт (90%)
Библиотека кодирования : XviD 64
Аудио
Идентификатор : 1
Формат : MPEG Audio
Версия формата : Version 1
Профиль формата : Layer 3
Идентификатор кодека : 55
Идентификатор кодека/Подсказка : MP3
Продолжительность : 1 ч. 18 м.
Вид битрейта : Постоянный
Битрейт : 128 Кбит/сек
Каналы : 2 канала
Частота : 48,0 КГц
Метод сжатия : С потерями
Размер потока : 72,2 Мбайт (10%)
Выравнивание : Соединение по промежуткам
Продолжительность промежутка : 40 мс. (1,00 видеокадр)
Время предзагрузки промежутка : 504 мс.
Библиотека кодирования : L3.99r
Настройки программы : -m s -V 4 -q 2 -lowpass 17 -b 128

Скриншоты

If your ratio falls below 0.3, you will not be able to download Torrents! More about the rating.

[dis-tracker.ru].t9385.torrent 
Torrent: Registered [ 2015-08-07 18:27 ] · C95CB206E8D5E0E68BAA3792F1DC1A8A3476BEE6

Download .torrent

Download

15 KB

Status: checked
Completed: 0 times
Size: 740 MB
terms.php
Похожие темы


Last edited by Dream on 2015-08-08 03:27; edited 1 time in total
[Profile] [PM]
Display posts:    
Reply to topic

Current time is: 20-Oct 23:38

All times are UTC ± 0



You cannot post new topics in this forum
You cannot reply to topics in this forum
You cannot edit your posts in this forum
You cannot delete your posts in this forum
You cannot vote in polls in this forum
You cannot attach files in this forum
You can download files in this forum