Тайна третьей планеты (1981) DVDRip-Реставрация

Reply to topic
 
Author Message

Dream ®

Gender: Male

Longevity: 3 years 5 months

Posts: 2164



Награды: None

Post 07-Aug-2015 18:12

[Quote]


Информация о фильме
Название: Тайна третьей планеты
Год выхода: 1981
Жанр: Мультфильм, Фантастика
Продолжительность: 00:47:34
Режиссер: Роман Качанов
Сценарий: Кир Булычёв
Композитор: Александр Зацепин
Роли озвучивали: Ольга Громова (Алиса Селезнева), Всеволод Ларионов (профессор Селезнев), Юрий Волынцев (Зеленый), Василий Ливанов (Громозека), Григорий Шпигель (Весельчак), Петр Вишняков (доктор Верховцев), Рина Зеленая (старая женщина), Игорь Ясулович, Юрий Андреев, Владимир Дружников, Владимир Кенигсон
О фильме: Приключения девочки Алисы, ее ученого папы и меланхолика капитана Зеленого, а также добродушного чудовища Громозеки и птицы Говоруна, который, как известно, отличается умом и сообразительностью...

Страна: СССР
Студия: Союзмультфильм
Перевод: Не требуется (оригинальный)
Файл
Кодек: avi
Качество: DVDRip (DVD5 КП реставрация)
Видео: XviD, 704x528, 25fps, 1720kbps
Аудио: AC3 Dolby Digital, 6channel, 48000Hz, 448kbps

MediaInfo

General
Complete name : Taina.Tretei.Planety.1981.O.DVDRip.700.MediaClub.CurHaJI.avi
Format : AVI
Format/Info : Audio Video Interleave
File size : 741 MiB
Duration : 47mn 34s
Overall bit rate : 2 177 Kbps
Movie name : Taina.Tretei.Planety.1981.O.DVDRip.700.MediaClub.CurHaJI
Writing application : VirtualDubMod 1.5.10.3 | www.virtualdub-fr.org || (build 2550/release)
Writing library : VirtualDub build 35491/release
Video
ID : 0
Format : MPEG-4 Visual
Format profile : Advanced Simple@L5
Format settings, BVOP : 1
Format settings, QPel : No
Format settings, GMC : No warppoints
Format settings, Matrix : Custom
Codec ID : XVID
Codec ID/Hint : XviD
Duration : 47mn 34s
Bit rate : 1 720 Kbps
Width : 704 pixels
Height : 528 pixels
Display aspect ratio : 4:3
Frame rate : 25.000 fps
Color space : YUV
Chroma subsampling : 4:2:0
Bit depth : 8 bits
Scan type : Progressive
Compression mode : Lossy
Bits/(Pixel*Frame) : 0.185
Stream size : 585 MiB (79%)
Writing library : XviD 1.2.1 (UTC 2008-12-04)
Audio
ID : 1
Format : AC-3
Format/Info : Audio Coding 3
Mode extension : CM (complete main)
Format settings, Endianness : Big
Codec ID : 2000
Duration : 47mn 26s
Bit rate mode : Constant
Bit rate : 448 Kbps
Channel(s) : 6 channels
Channel positions : Front: L C R, Side: L R, LFE
Sampling rate : 48.0 KHz
Bit depth : 16 bits
Compression mode : Lossy
Stream size : 152 MiB (21%)
Alignment : Split accross interleaves
Interleave, duration : 40 ms (1.00 video frame)
Interleave, preload duration : 500 ms

Скриншоты

[Profile] [PM]
Display posts:    
Reply to topic

Current time is: 30-Oct 13:54

All times are UTC ± 0



You cannot post new topics in this forum
You cannot reply to topics in this forum
You cannot edit your posts in this forum
You cannot delete your posts in this forum
You cannot vote in polls in this forum
You cannot attach files in this forum
You cannot download files in this forum