Ирония судьбы, или С легким паром! (1975) DVDRip

Reply to topic
DL-List and Torrent activity
Size:  1.46 GB   |    Registered:  5 years 2 months   |    Completed:  0 times

Seeder not seen: Never

 
   
 
 
 
Author Message

Dream ®

Gender: Male

Longevity: 3 years 5 months

Posts: 2164



Награды: None

Post 07-Aug-2015 17:59

[Quote]

Название фильма:Ирония судьбы, или С легким паром!
Страна: СССР
Студия: Мосфильм
Жанр: мелодрама, комедия
Год выпуска: 1975
Продолжительность: 03:04:12
Перевод: не требуется
Оригинальная аудиодорожка: русский
Cубтитры: русский, английский
Режиссер: Эльдар Рязанов
В ролях: Андрей Мягков, Барбара Брыльска, Юрий Яковлев, Александр Ширвиндт, Георгий Бурков, Лия Ахеджакова, Александр Белявский, Любовь Добржанская, Ольга Науменко, Готлиб Ронинсон...
Описание: Пошли друзья в баню попариться, по традиции смыть с себя все плохое, чтобы встретить Новый Год чистыми, а «напарились» до такой степени (пивом и водкой), что отправили в Ленинград не того.-
-
Исходник: DVD9 R5 от TWISTER
Качество: DVDRip
Формат: AVI
Дополнительная информация: Долго подбирал исходник, кодировал с разных и сравнивал. В итоге лучшим исходником оказался DVD9 R5 от TWISTER. Крупный план в своем диске завысил контрастность, в связи с чем в темных сценах теряются детали.
Видео: 624x464 (4:3), 25.000 fps, XViD ~ 999 kbps avg, 0.138 bit/pixel
Аудио: 48 kHz, MP3 2 ch, 128 kbps, русский
Формат субтитров: SoftSub (srt)

MediaInfo

Общее
Полное имя : Ironiya.sudby.1975.DVDRip.1.46GB_[Youtracker]_by_avproh.avi
Формат : AVI
Формат/Информация : Audio Video Interleave
Размер файла : 1,46 Гбайт
Продолжительность : 3 ч. 4 м.
Общий поток : 1136 Кбит/сек
Программа кодирования : VirtualDubModRus 1.5.10.2 (build 2542/release)
Библиотека кодирования : VirtualDubMod build 2542/release
Видео
Идентификатор : 0
Формат : MPEG-4 Visual
Профиль формата : Advanced Simple@L5
Параметр BVOP формата : 1
Параметр QPel формата : Нет
Параметр GMC формата : Без точки перехода
Параметр матрицы формата : Выборочная
Идентификатор кодека : XVID
Идентификатор кодека/Подсказка : XviD
Продолжительность : 3 ч. 4 м.
Битрейт : 999 Кбит/сек
Ширина : 624 пикселя
Высота : 464 пикселя
Соотношение сторон : 4:3
Частота кадров : 25,000 кадров/сек
Цветовое пространство : YUV
Субдискретизация насыщенности : 4:2:0
Битовая глубина : 8 бит
Тип развёртки : Прогрессивная
Метод сжатия : С потерями
Бит/(Пиксели*Кадры) : 0.138
Размер потока : 1,28 Гбайт (88%)
Библиотека кодирования : XviD 65
Аудио
Идентификатор : 1
Формат : MPEG Audio
Версия формата : Version 1
Профиль формата : Layer 3
Режим : Joint stereo
Расширение режима : MS Stereo
Идентификатор кодека : 55
Идентификатор кодека/Подсказка : MP3
Продолжительность : 3 ч. 4 м.
Вид битрейта : Постоянный
Битрейт : 128 Кбит/сек
Каналы : 2 канала
Частота : 48,0 КГц
Метод сжатия : С потерями
Размер потока : 169 Мбайт (11%)
Выравнивание : Соединение по промежуткам
Продолжительность промежутка : 40 мс. (1,00 видеокадр)
Время предзагрузки промежутка : 504 мс.

Скриншоты:


[/spoil

If your ratio falls below 0.3, you will not be able to download Torrents! More about the rating.

[dis-tracker.ru].t9380.torrent 
Torrent: Registered [ 2015-08-07 17:59 ] · 9C49DD78111538F68E4B93789849B5CE043E0B41

Download .torrent

Download

16 KB

Status: checked
Completed: 0 times
Size: 1.46 GB
terms.php
Похожие темы


Last edited by Dream on 2015-08-08 03:27; edited 1 time in total
[Profile] [PM]
Display posts:    
Reply to topic

Current time is: 25-Oct 11:08

All times are UTC ± 0



You cannot post new topics in this forum
You cannot reply to topics in this forum
You cannot edit your posts in this forum
You cannot delete your posts in this forum
You cannot vote in polls in this forum
You cannot attach files in this forum
You can download files in this forum