Достучаться до небес / Knockin on Heaven's Doors (1997) BDRip-AVC

Reply to topic
DL-List and Torrent activity
Size:  2.32 GB   |    Registered:  5 years 2 months   |    Completed:  0 times

Seeder not seen: Never

 
   
 
 
 
Author Message

Dream ®

Gender: Male

Longevity: 3 years 5 months

Posts: 2164



Награды: None

Post 07-Aug-2015 12:57

[Quote]


Информация о фильме
Название: Достучаться до небес
Оригинальное название: Knockin on Heaven's Doors
Год выхода: 1997
Жанр: Криминал, драма, комедия, боевик
Режиссер: Томас Ян
В ролях: Тиль Швайгер, Ян Йозеф Лиферс, Тьерри Ван Вервеке, Мориц Бляйбтрой, Хуб Стапель, Леонард Лэнсинк, Ральф Херфорт, Конни Фробёсс, Рутгер Хауэр, Кристин Паул, Ханнес Янике, Уилли Томчик, Владимир Вейгл, Дженни Элверс, Коринна Харфаух, Тобиас Шенке, Харк Бом, Мюриэль Баумейстер, Кристоф Отт, Флориан Фитц, Ксения Сиберг, Маркус Нафкен, Тайрон Рикеттс, Сальваторе Паскаль, Густав Адольф, Антон Раттингер, Николя Бодо, Зонке Вортманн, Томас Ян, Янине Кунце, Бернд Айхингер, Вольфганг Кавен, Людвиг Беттгер, Клелия Сарто, Ева Манншотт, Дана Карлсен
О фильме:
Если в раю только и разговоров, что о море и о закате, то перед смертью во что бы то ни стало надо увидеть море. Так решают случайные знакомые, попавшие вместе на обследование в больницу и получившие диагноз смертельно больных, Мартин Брешт и Руди Вурлицер. До смерти несколько дней, а это значит, можно угнать у крутого главаря мафии его мерседес с миллионом в багажнике и отправиться навстречу своей мечте. В погоню пускается полиция и убийцы. Но парни хотят только успеть воплотить в жизнь как можно больше своих желаний, не задумываясь о последствиях. Сделать всё, что ты не успел. А как же иначе?
Страна: Германия, Buena Vista International Film Production (Germany), Mr. Brown Entertainment
Продолжительность: 01:28:56
Перевод: Дублированный, профессиональный двухголосый, авторский
Субтитры: Русские, английские
Дата релиза: 23.10.2013
Файл
Кодек: H.264
Качество: BDRip (AVC) (Blu-Ray Remux (1080p))
Видео: MPEG-4 AVC, 2000 Кбит/с, 1024x436
Звук:
Аудио №1: Русский (AC3, 2 ch, 384 Кбит/с) - Дублированный
Аудио №2: Русский (AC3, 6 ch, 448 Кбит/с) - Профессиональный двухголосый
Аудио №3: Русский (AC3, 6 ch, 448 Кбит/с) - Авторский одноголосый (Сербин)
Аудио №4: Английский (AC3, 6 ch, 448 Кбит/с)

MediaInfo

Общее
Уникальный идентификатор : 222900016026955672921069429907881796641 (0xA7B0FB46AB38E12E821A7C32E9D92421)
Полное имя : E:3Dostuchatsja.do.nebes.1997.x264.BDRip.(AVC).ExKinoRay.mkv
Формат : Matroska
Размер файла : 2,32 Гбайт
Продолжительность : 1 ч. 28 м.
Общий поток : 3730 Кбит/сек
Название фильма : Dostuchatsja.do.nebes.1997.x264.BDRip.(AVC).ExKinoRay
Дата кодирования : UTC 2013-10-23 15:38:52
Программа кодирования : mkvmerge v4.0.0 ('The Stars were mine') сборка от Jun 6 2010 16:18:42
Библиотека кодирования : libebml v1.0.0 + libmatroska v1.0.0
Видео
Идентификатор : 1
Формат : AVC
Формат/Информация : Advanced Video Codec
Профиль формата : High@L4.1
Параметр CABAC формата : Да
Параметр ReFrames формата : 8 кадров
Параметры GOP формата : M=9, N=29
Идентификатор кодека : V_MPEG4/ISO/AVC
Продолжительность : 1 ч. 28 м.
Битрейт : 2000 Кбит/сек
Ширина : 1024 пикс.
Высота : 436 пикс.
Соотношение сторон : 2,35:1
Частота кадров : 23,976 кадр/сек
Цветовое пространство : YUV
Подвыборка цветности : 4:2:0
Битовая глубина : 8 бит
Тип развёртки : Прогрессивная
Бит/(Пиксели*Кадры) : 0.187
Размер потока : 1,20 Гбайт (52%)
Заголовок : Rip by Enigma-Vladislav71
Библиотека кодирования : x264 core 129 r2245 bc13772
Настройки программы : cabac=1 / ref=8 / deblock=1:-2:-2 / analyse=0x3:0x133 / me=umh / subme=11 / psy=1 / psy_rd=1.00:0.00 / mixed_ref=1 / me_range=48 / chroma_me=1 / trellis=2 / 8x8dct=1 / cqm=0 / deadzone=21,11 / fast_pskip=0 / chroma_qp_offset=-2 / threads=3 / lookahead_threads=1 / sliced_threads=0 / nr=0 / decimate=0 / interlaced=0 / bluray_compat=0 / constrained_intra=0 / bframes=8 / b_pyramid=2 / b_adapt=2 / b_bias=0 / direct=3 / weightb=1 / open_gop=0 / weightp=2 / keyint=240 / keyint_min=23 / scenecut=40 / intra_refresh=0 / rc=2pass / mbtree=0 / bitrate=2000 / ratetol=1.0 / qcomp=0.60 / qpmin=10 / qpmax=51 / qpstep=4 / cplxblur=20.0 / qblur=0.5 / ip_ratio=1.40 / pb_ratio=1.30 / aq=2:1.00
Язык : English
Аудио #1
Идентификатор : 2
Формат : AC-3
Формат/Информация : Audio Coding 3
Расширение режима : CM (complete main)
Идентификатор кодека : A_AC3
Продолжительность : 1 ч. 28 м.
Вид битрейта : Постоянный
Битрейт : 384 Кбит/сек
Каналы : 2 канала
Расположение каналов : Front: L R
Частота : 48,0 КГц
Битовая глубина : 16 бит
Метод сжатия : С потерями
Размер потока : 244 Мбайт (10%)
Заголовок : Дублированный
Язык : Russian
Аудио #2
Идентификатор : 3
Формат : AC-3
Формат/Информация : Audio Coding 3
Расширение режима : CM (complete main)
Идентификатор кодека : A_AC3
Продолжительность : 1 ч. 28 м.
Вид битрейта : Постоянный
Битрейт : 448 Кбит/сек
Каналы : 6 каналов
Расположение каналов : Front: L C R, Side: L R, LFE
Частота : 48,0 КГц
Битовая глубина : 16 бит
Метод сжатия : С потерями
Размер потока : 285 Мбайт (12%)
Заголовок : Профессиональный двухголосый
Язык : Russian
Аудио #3
Идентификатор : 4
Формат : AC-3
Формат/Информация : Audio Coding 3
Расширение режима : CM (complete main)
Идентификатор кодека : A_AC3
Продолжительность : 1 ч. 28 м.
Вид битрейта : Постоянный
Битрейт : 448 Кбит/сек
Каналы : 6 каналов
Расположение каналов : Front: L C R, Side: L R, LFE
Частота : 48,0 КГц
Битовая глубина : 16 бит
Метод сжатия : С потерями
Размер потока : 285 Мбайт (12%)
Заголовок : Авторский одноголосый (Сербин)
Язык : Russian
Аудио #4
Идентификатор : 5
Формат : AC-3
Формат/Информация : Audio Coding 3
Расширение режима : CM (complete main)
Идентификатор кодека : A_AC3
Продолжительность : 1 ч. 28 м.
Вид битрейта : Постоянный
Битрейт : 448 Кбит/сек
Каналы : 6 каналов
Расположение каналов : Front: L C R, Side: L R, LFE
Частота : 48,0 КГц
Битовая глубина : 16 бит
Метод сжатия : С потерями
Размер потока : 285 Мбайт (12%)
Заголовок : английский
Язык : English
Текст #1
Идентификатор : 6
Формат : UTF-8
Идентификатор кодека : S_TEXT/UTF8
Идентификатор кодека/Информация : UTF-8 Plain Text
Язык : Russian
Текст #2
Идентификатор : 7
Формат : UTF-8
Идентификатор кодека : S_TEXT/UTF8
Идентификатор кодека/Информация : UTF-8 Plain Text
Язык : English
Меню
00:00:00.000 : en:Chapter 01
00:07:58.394 : en:Chapter 02
00:15:45.778 : en:Chapter 03
00:20:59.633 : en:Chapter 04
00:26:37.512 : en:Chapter 05
00:32:24.400 : en:Chapter 06
00:39:46.384 : en:Chapter 07
00:47:04.613 : en:Chapter 08
00:54:11.831 : en:Chapter 09
01:02:44.844 : en:Chapter 10
01:11:54.059 : en:Chapter 11
01:19:49.409 : en:Chapter 12

Скриншоты

With ratio 0.06 you can not download torrents

Похожие темы
[Profile] [PM]
Display posts:    
Reply to topic

Current time is: 27-Oct 20:14

All times are UTC ± 0



You cannot post new topics in this forum
You cannot reply to topics in this forum
You cannot edit your posts in this forum
You cannot delete your posts in this forum
You cannot vote in polls in this forum
You cannot attach files in this forum
You can download files in this forum