Форрест Гамп / Forrest Gump (1994) HDRip

Reply to topic
DL-List and Torrent activity
Size:  1.46 GB   |    Registered:  5 years 2 months   |    Completed:  1 time

Seeder not seen: 4 years 8 months

 
   
 
 
 
Author Message

Dream ®

Gender: Male

Longevity: 3 years 4 months

Posts: 2164



Награды: None

Post 07-Aug-2015 12:14

[Quote]

Форрест Гамп / Forrest Gump- Страна: США
Жанр: мелодрама, драма
Год выпуска: 1994
Продолжительность: 02:22:09
Перевод: Профессиональный (многоголосый закадровый) Киномания
Cубтитры: нет
Режиссер: Роберт Земекис / Robert Zemeckis
В ролях: Том Хэнкс, Робин Райт Пенн, Гэри Синиз, Микелти Уильямсон, Салли Филд, Майкл Коннер Хамфриз, Джордж Келли, Боб Пенни, Джон Рэндолл, Сэм Андерсон, Марго Мурер, Питер Добсон, Шавон Фэллон, Ханна Холл, Тайлер Лонг, Кристофер Джонс, Джейсон МакГуайр, Сонни Шройер, Бретт Райс
Описание: Захватывающий, глубокий, очень добрый и трогательный фильм рассказывает от лица главного героя Форреста Гампа, слабоумного безобидного человека с благородным и открытым сердцем, историю его необыкновенной жизни. Фантастическим образом превращается он в известного футболиста, героя войны, преуспевающего бизнесмена. Он становится миллиардером, но остается таким же бесхитростным, глупым и добрым. Форреста ждет постоянный успех во всем, а он любит девушку, с которой дружил в детстве, но взаимность приходит слишком поздно.
Качество видео: HDRip [Исходник BDRip 1080p]
Формат видео: AVI
Видео кодек: XviD
Аудио кодек: AC3
Видео: 688x288 (2.39:1), 23.976 fps, XviD build 50 ~1269 kbps avg, 0.27 bit/pixel
Аудио: 48 kHz, AC3 Dolby Digital, 2/0 (L,R) ch, ~192 kbps-

Скриншоты

MI

D:Мои рипыForrest.Gump.1994.HDRip.dexter_lex.avi
General
Complete name : D:Мои рипыForrest.Gump.1994.HDRip.dexter_lex.avi
Format : AVI
Format/Info : Audio Video Interleave
File size : 1.46 GiB
Duration : 2h 22mn
Overall bit rate : 1 471 Kbps
Writing application : VirtualDubMod 1.5.10.3 | www.virtualdub-fr.org || (build 2550/release)
Writing library : VirtualDubMod build 2550/release
Video #0
ID : 0
Format : MPEG-4 Visual
Format profile : Advanced Simple@L5
Format settings, BVOP : 1
Format settings, QPel : No
Format settings, GMC : No warppoints
Format settings, Matrix : Custom
Codec ID : XVID
Codec ID/Hint : XviD
Duration : 2h 22mn
Bit rate : 1 269 Kbps
Width : 688 pixels
Height : 288 pixels
Display aspect ratio : 2.40:1
Frame rate : 23.976 fps
Color space : YUV
Chroma subsampling : 4:2:0
Bit depth : 8 bits
Scan type : Progressive
Compression mode : Lossy
Bits/(Pixel*Frame) : 0.267
Stream size : 1.26 GiB (86%)
Writing library : XviD 1.2.1 (UTC 2008-12-04)
Audio #1
ID : 1
Format : AC-3
Format/Info : Audio Coding 3
Mode extension : CM (complete main)
Codec ID : 2000
Duration : 2h 22mn
Bit rate mode : Constant
Bit rate : 192 Kbps
Channel(s) : 2 channels
Channel positions : Front: L R
Sampling rate : 48.0 KHz
Bit depth : 16 bits
Compression mode : Lossy
Stream size : 195 MiB (13%)
Alignment : Split accross interleaves
Interleave, duration : 42 ms (1.00 video frame)
Interleave, preload duration : 500 ms

If your ratio falls below 0.3, you will not be able to download Torrents! More about the rating.

[dis-tracker.ru].t9359.torrent 
Torrent: Registered [ 2015-08-07 12:14 ] · 0399F419E05112C4139BD15ACAFB67CA77774167

Download .torrent

Download

15 KB

Status: checked
Completed: 1 times
Size: 1.46 GB
terms.php
[Profile] [PM]
Display posts:    
Reply to topic

Current time is: 22-Oct 17:47

All times are UTC ± 0



You cannot post new topics in this forum
You cannot reply to topics in this forum
You cannot edit your posts in this forum
You cannot delete your posts in this forum
You cannot vote in polls in this forum
You cannot attach files in this forum
You can download files in this forum