Избави нас от лукавого / Deliver Us from Evil (Скотт Дерриксон / Scott Derrickson) [2014, США, Ужасы, триллер, BDRip-AVC] Dub + Sub Rus,Eng + Original Eng

Reply to topic
DL-List and Torrent activity
Size:  2.94 GB   |    Registered:  5 years 2 months   |    Completed:  1 time

Seeder not seen: 4 years 8 months

 
   
 
 
 
Author Message

IVAN@190282 ®

Gender: Male

Longevity: 5 years 2 months

Posts: 411

Location: Иваново



Награды: 3 (Подробнее)

Активный релизер (200 релизов) (Количество: 1) Активный релизер (250 релизов) (Количество: 1) Активный релизер (300 релизов) (Количество: 1)

Post 04-Aug-2015 22:05

[Quote]

Избави нас от лукавогоDeliver Us from Evil«You haven't seen true evil»
Страна: США
Жанр: Ужасы, триллер
Год выпуска: 2014
Продолжительность: 01:58:26
Перевод: Профессиональный (дублированный) BD CFE
Cубтитры: русские,английские
Оригинальная аудиодорожка: английский
Режиссер: Скотт Дерриксон / Scott Derrickson
В ролях: Эрик Бана, Эдгар Рамирес, Оливия Манн, Крис Кой, Дориан Миссик, Шон Харрис, Джоэл МакХэйл, Майк Хьюстон, Лулу Уилсон, Оливия Хортон
Описание: Полиция Нью-Йорка расследует серию тревожных и необъяснимых преступлений. Один из офицеров обращается за помощью к специалисту по экзорцизму, чтобы избавить город от дьявольской напасти.
Доп. информация:
Релиз группы:
Качество видео: BDRip-AVC |Избави нас от лукавого / Deliver Us from Evil (2014) 1080p BD-Remux| HD club
Формат видео: MKV
Видео: 1152x480 (2:35:1), 23,976 fps, 2657 Кbps, 0.200 bit/pixe
Аудио: 48 kHz, AC3 Dolby Digital, 3/2 (L,C,R,l,r) + LFE ch, ~448.00 kbps avg | DUB
Аудио 2: 48 kHz, AC3 Dolby Digital, 3/2 (L,C,R,l,r) + LFE ch, ~448.00 kbps avg | ENG
Формат субтитров: softsub (SRT)
Доп. информация о субтитрах: отключаемые

MediaInfo

General
Unique ID : 179078246144654815759748636640225290455 (0x86B93735BEB96FE6B96FD64D255468D7)
Complete name : E:\Мои рипы\Избави нас от лукавого\Избави нас от лукавого by_IVAN@190282.mkv
Format : Matroska
Format version : Version 4 / Version 2
File size : 2.94 GiB
Duration : 1h 58mn
Overall bit rate : 3 557 Kbps
Encoded date : UTC 2014-12-03 01:20:41
Writing application : mkvmerge v7.0.0 ('Where We Going') 64bit built on Jun 9 2014 15:16:27
Writing library : libebml v1.3.0 + libmatroska v1.4.1
DURATION : 01:52:06.886000000
NUMBER_OF_FRAMES : 2047
NUMBER_OF_BYTES : 117218
_STATISTICS_WRITING_APP : mkvmerge v7.0.0 ('Where We Going') 64bit built on Jun 9 2014 15:16:27
_STATISTICS_WRITING_DATE_UTC : 2014-12-03 01:20:41
_STATISTICS_TAGS : BPS DURATION NUMBER_OF_FRAMES NUMBER_OF_BYTES
Video
ID : 1
Format : AVC
Format/Info : Advanced Video Codec
Format profile : High@L4.1
Format settings, CABAC : Yes
Format settings, ReFrames : 13 frames
Codec ID : V_MPEG4/ISO/AVC
Duration : 1h 58mn
Bit rate : 2 657 Kbps
Width : 1 152 pixels
Height : 480 pixels
Display aspect ratio : 2.35:1
Frame rate mode : Constant
Frame rate : 23.976 fps
Color space : YUV
Chroma subsampling : 4:2:0
Bit depth : 8 bits
Scan type : Progressive
Bits/(Pixel*Frame) : 0.200
Stream size : 2.14 GiB (73%)
Writing library : x264 core 142 r2491kMod 24e4fed
Encoding settings : cabac=1 / ref=13 / deblock=1:-3:-3 / analyse=0x3:0x113 / me=umh / subme=11 / psy=1 / fade_compensate=0.00 / psy_rd=1.00:0.15 / mixed_ref=1 / me_range=48 / chroma_me=1 / trellis=2 / 8x8dct=1 / cqm=0 / deadzone=21,11 / fast_pskip=0 / chroma_qp_offset=0 / threads=6 / lookahead_threads=6 / sliced_threads=0 / slices=10 / nr=0 / decimate=1 / interlaced=0 / bluray_compat=0 / constrained_intra=0 / fgo=0 / bframes=16 / b_pyramid=2 / b_adapt=2 / b_bias=0 / direct=3 / weightb=1 / open_gop=1 / weightp=2 / keyint=240 / keyint_min=23 / scenecut=40 / intra_refresh=0 / rc_lookahead=40 / rc=2pass / mbtree=0 / bitrate=2657 / ratetol=1.0 / qcomp=0.60 / qpmin=0 / qpmax=69 / qpstep=4 / cplxblur=20.0 / qblur=0.5 / vbv_maxrate=50000 / vbv_bufsize=62500 / nal_hrd=none / filler=0 / ip_ratio=1.40 / pb_ratio=1.30 / aq=1:1.00
Default : Yes
Forced : No
Color primaries : BT.709
Transfer characteristics : BT.709
Matrix coefficients : BT.709
Audio #1
ID : 2
Format : AC-3
Format/Info : Audio Coding 3
Mode extension : CM (complete main)
Format settings, Endianness : Big
Codec ID : A_AC3
Duration : 1h 58mn
Bit rate mode : Constant
Bit rate : 448 Kbps
Channel(s) : 6 channels
Channel positions : Front: L C R, Side: L R, LFE
Sampling rate : 48.0 KHz
Bit depth : 16 bits
Compression mode : Lossy
Stream size : 380 MiB (13%)
Title : Dub
Default : Yes
Forced : No
Audio #2
ID : 3
Format : AC-3
Format/Info : Audio Coding 3
Mode extension : CM (complete main)
Format settings, Endianness : Big
Codec ID : A_AC3
Duration : 1h 58mn
Bit rate mode : Constant
Bit rate : 448 Kbps
Channel(s) : 6 channels
Channel positions : Front: L C R, Side: L R, LFE
Sampling rate : 48.0 KHz
Bit depth : 16 bits
Compression mode : Lossy
Stream size : 380 MiB (13%)
Title : Eng
Default : No
Forced : No
Text #1
ID : 4
Format : UTF-8
Codec ID : S_TEXT/UTF8
Codec ID/Info : UTF-8 Plain Text
Title : Rus
Default : Yes
Forced : No
Text #2
ID : 5
Format : UTF-8
Codec ID : S_TEXT/UTF8
Codec ID/Info : UTF-8 Plain Text
Title : Eng
Default : No
Forced : No

x264 log

VIDEO ENCODING
x264 [info]: frame I:1184 Avg QP:12.40 size: 73925
x264 [info]: frame P:43330 Avg QP:14.93 size: 26193
x264 [info]: frame B:125862 Avg QP:17.22 size: 9038
x264 [info]: consecutive B-frames: 4.2% 6.3% 10.4% 23.5% 18.9% 25.4% 5.2% 3.2% 1.0% 0.6% 0.3% 0.4% 0.2% 0.2% 0.1% 0.0% 0.0%
x264 [info]: kb/s:2656.88
x264 [total]: encoded 170376 frames, 5.78 fps, 2656.88 kb/s, duration 8:11:02.26

Скриншот c названием фильма

Скриншоты

Убедительная просьба пожалуйста кто скачал не бросайте раздачу!!!
[dis-tracker.ru].t9321.torrent 
 GOLD TORRENT! DOWNLOAD TRAFFIC DOES NOT CONSIDER! 
Torrent: Registered [ 2015-08-04 22:05 ] · 5B421D152250BB710AA109E3CEB4ACD0597EDBE2

Download .torrent

Download

15 KB

Status: checked
Completed: 1 times
Size: 2.94 GB
terms.php
Похожие темы
[Profile] [PM]
Display posts:    
Reply to topic

Current time is: 20-Oct 02:54

All times are UTC ± 0



You cannot post new topics in this forum
You cannot reply to topics in this forum
You cannot edit your posts in this forum
You cannot delete your posts in this forum
You cannot vote in polls in this forum
You cannot attach files in this forum
You can download files in this forum